Year Long Disaster / Year Long Disaster
Жанр: Stoner Rock
Носитель: CD
Страна-производитель диска (релиза): USA
Год издания: 2007
Издатель (лейбл): Volcom Entertainment
Номер по каталогу: VOL04673
Страна исполнителя (группы): USA
Аудиокодек: FLAC (*.flac)
Тип рипа: image+.cue
Битрейт аудио: lossless
Продолжительность: 48:11
Источник : isohunt2.org
Наличие сканов в содержимом раздачи: нет
Треклист:
01. Per Qualche Dollaro In Piu (04:00)
02. Leda Atomica (03:55)
03. Cold Killer (03:20)
04. Destination (05:05)
05. The Fool And You (02:38)
06. Sapphire (03:42)
07. It Ain't Luck (04:04)
08. Let Me Down (03:46)
09. Galea Aponeurotica (04:19)
10. Swan On Black Lake (08:38)
11. Names Of God (04:44)

Лог создания рипа

Exact Audio Copy V1.1 from 23. June 2015
EAC extraction logfile from 22. May 2016, 1:38
Year Long Disaster / Year Long Disaster (Dig)
Used drive : ASUS DRW-24F1ST c Adapter: 1 ID: 0
Read mode : Secure
Utilize accurate stream : Yes
Defeat audio cache : Yes
Make use of C2 pointers : No
Read offset correction : 6
Overread into Lead-In and Lead-Out : No
Fill up missing offset samples with silence : Yes
Delete leading and trailing silent blocks : No
Null samples used in CRC calculations : Yes
Used interface : Native Win32 interface for Win NT & 2000
Used output format : User Defined Encoder
Selected bitrate : 1024 kBit/s
Quality : High
Add ID3 tag : Yes
Command line compressor : C:\Program Files (x86)\Exact Audio Copy\FLAC\FLAC.EXE
Additional command line options : -6 -V -T "ARTIST=%artist%" -T "TITLE=%title%" -T "ALBUM=%albumtitle%" -T "DATE=%year%" -T "TRACKNUMBER=%tracknr%" -T "GENRE=%genre%" -T "COMMENT=%comment%" -T "BAND=%albuminterpret%" -T "ALBUMARTIST=%albuminterpret%" -T "COMPOSER=%composer%" %haslyrics%--tag-from-file=LYRICS="%lyricsfile%"%haslyrics% -T "DISCNUMBER=%cdnumber%" -T "TOTALDISCS=%totalcds%" -T "TOTALTRACKS=%numtracks%" %hascover%--picture="%coverfile%"%hascover% %source% -o %dest%
TOC of the extracted CD
Track | Start | Length | Start sector | End sector
---------------------------------------------------------
1 | 0:00.00 | 4:00.60 | 0 | 18059
2 | 4:00.60 | 3:55.34 | 18060 | 35718
3 | 7:56.19 | 3:20.42 | 35719 | 50760
4 | 11:16.61 | 5:05.54 | 50761 | 73689
5 | 16:22.40 | 2:38.36 | 73690 | 85575
6 | 19:01.01 | 3:42.70 | 85576 | 102295
7 | 22:43.71 | 4:04.65 | 102296 | 120660
8 | 26:48.61 | 3:46.26 | 120661 | 137636
9 | 30:35.12 | 4:19.09 | 137637 | 157070
10 | 34:54.21 | 8:38.18 | 157071 | 195938
11 | 43:32.39 | 4:44.59 | 195939 | 217297
Range status and errors
Selected range
Filename C:\Users\MSI\Desktop\Test\Year Long Disaster - Year Long Disaster (Dig).wav
Peak level 100.0 %
Extraction speed 5.8 X
Range quality 100.0 %
Test CRC A228858E
Copy CRC A228858E
Copy OK
No errors occurred
AccurateRip summary
Track 1 accurately ripped (confidence 5) [950883E9] (AR v2)
Track 2 accurately ripped (confidence 5) [932F9880] (AR v2)
Track 3 accurately ripped (confidence 5) [D8F358CB] (AR v2)
Track 4 accurately ripped (confidence 5) [0E218681] (AR v2)
Track 5 accurately ripped (confidence 5) [5CC0BCC9] (AR v2)
Track 6 accurately ripped (confidence 5) [B6489C33] (AR v2)
Track 7 accurately ripped (confidence 5) [FA9EE12D] (AR v2)
Track 8 accurately ripped (confidence 5) [23465D4B] (AR v2)
Track 9 accurately ripped (confidence 5) [D740C3D2] (AR v2)
Track 10 accurately ripped (confidence 5) [F0518CFD] (AR v2)
Track 11 accurately ripped (confidence 5) [7EBA32A5] (AR v2)
All tracks accurately ripped
End of status report
---- CUETools DB Plugin V2.1.6
[CTDB TOCID: nAV7m6IC8Gp6F4aycnlScWgY5.Q-] found
Submit result: nAV7m6IC8Gp6F4aycnlScWgY5.Q- has been confirmed
Track | CTDB Status
1 | (7/7) Accurately ripped
2 | (7/7) Accurately ripped
3 | (7/7) Accurately ripped
4 | (7/7) Accurately ripped
5 | (7/7) Accurately ripped
6 | (7/7) Accurately ripped
7 | (7/7) Accurately ripped
8 | (7/7) Accurately ripped
9 | (7/7) Accurately ripped
10 | (7/7) Accurately ripped
11 | (7/7) Accurately ripped

To download the file disable ad blocking, and reload the page.

disable adblock How to disable ad blocking?

Download by magnet link 345 MB Download Torrent

Login using:

Similar topics



   
Current time is: 17-Oct 13:32 :: All times are UTC ± 0