Информация о фильме
Название: Джунгли
Оригинальное название: Jungle
Год выхода: 2017
Жанр: Боевик, Триллер, Драма, Приключения
Режиссер: Грег МакЛин
В ролях: Дэниэл Рэдклифф, Томас Кречман, Алекс Расселл, Джоэль Джексон, Лили Салливан, Ясмин Кассим, Яцек Коман, Луис Лопез, Энджи Милликен, Пэрис Молетти
О фильме:
Группа друзей отправляется в непроходимые джунгли Боливии в поисках экзотических впечатлений. Однако, когда проводник исчезает и приятели остаются один на один с дикой природой, путешествие, начавшееся как забавное приключение, превращается в борьбу за выживание…

Страна: Австралия, Колумбия
Студия: Babber Films, Cutting Edge Group, Screen Australia, Screen Queensland
Продолжительность: 01:57:13
Перевод: Любительский [многоголосый, закадровый] ~ MUZOBOZ
Файл
Кодек: MPEG-4 AVC
Качество: WEB-DLRip 720p
Видео: 1280x536, 4025kb/s, 23.976fps
Звук: 384kb/s, 2ch, 48000kHz, AC3 [RUS]
Субтитры: Отсутствуют
ПРИСУТСТВУЕТ РЕКЛАМА

MI

Формат : Matroska
Версия формата : Version 2
Размер файла : 3,61 Гбайт
Продолжительность : 1 ч. 57 м.
Режим общего битрейта : Переменный
Общий поток : 4411 Кбит/сек
Дата кодирования : UTC 2017-10-20 20:23:07
Программа кодирования : mkvmerge v8.3.0 ('Over the Horizon') 64bit
Библиотека кодирования : libebml v1.3.1 + libmatroska v1.4.2
Видео
Идентификатор : 1
Формат : AVC
Формат/Информация : Advanced Video Codec
Профиль формата : [email protected]
Настройки формата : CABAC / 12 Ref Frames
Параметр CABAC формата : Да
Параметр RefFrames формата : 12 кадров
Идентификатор кодека : V_MPEG4/ISO/AVC
Продолжительность : 1 ч. 57 м.
Вид битрейта : Переменный
Битрейт : 4025 Кбит/сек
Максимальный битрейт : 4500 Кбит/сек
Ширина : 1280 пикселей
Высота : 536 пикселей
Соотношение сторон : 2,40:1
Режим частоты кадров : Постоянный
Частота кадров : 23,976 (24000/1001) кадра/сек
Стандарт вещания : Component
Цветовое пространство : YUV
Субдискретизация насыщенности : 4:2:0
Битовая глубина : 8 бит
Тип развёртки : Прогрессивная
Бит/(Пиксели*Кадры) : 0.245
Размер потока : 3,30 Гбайт (91%)
Default : Да
Forced : Нет
Цветовой диапазон : Limited
Основные цвета : BT.709
Характеристики трансфера : BT.709
Коэффициенты матрицы : BT.709
Аудио
Идентификатор : 2
Формат : AC-3
Формат/Информация : Audio Coding 3
Параметр Endianness формата : Big
Идентификатор кодека : A_AC3
Продолжительность : 1 ч. 57 м.
Вид битрейта : Постоянный
Битрейт : 384 Кбит/сек
Каналы : 2 канала
Расположение каналов : Front: L R
Частота : 48,0 КГц
Частота кадров : 31,250 кадров/сек (1536 SPF)
Битовая глубина : 16 бит
Метод сжатия : С потерями
Размер потока : 322 Мбайт (9%)
Default : Да
Forced : Нет

Скриншоты


If you like the topic, please click share to help develop our site.

To download the file disable ad blocking, and reload the page.

disable adblock How to disable ad blocking?

Download by magnet link 3.61 GB Download Torrent

Login using:

Similar topics



   
Current time is: 23-Jul 01:50 :: All times are UTC + 3