Töxik Waltz (Toxik Waltz) / Declassified
Жанр: Thrash Metal
Носитель: CD
Год издания: 2016
Издатель (лейбл): Eventhink Metal Records
Страна исполнителя (группы): Spain
Аудиокодек: FLAC (*.flac)
Тип рипа: image+.cue
Битрейт аудио: lossless
Продолжительность: 00:34:23
Источник (релизер): мой CD
Наличие сканов в содержимом раздачи: да
Треклист:
01. Abduction 03:52
02. Thrash Metal Dictatorship 03:23
03. Beyond The Wall Of Sleep 02:48
04. Island Of Death 03:21
05. Politician 03:17
06. Srebrenica 04:20
07. Octogenarian Violence 03:46
08. Loudmouth 02:53
09. Thrashing Like a Maniac 06:42

Лог создания рипа

Exact Audio Copy V1.1 from 23. June 2015
Отчёт EAC об извлечении, выполненном 4. октября 2017, 12:28
Toxik Waltz / Declassified
Дисковод: HL-DT-STDVDRAM GTA0N Adapter: 1 ID: 0
Режим чтения : Достоверность
Использование точного потока : Да
Отключение кэша аудио : Да
Использование указателей C2 : Нет
Коррекция смещения при чтении : 102
Способность читать области Lead-in и Lead-out : Нет
Заполнение пропущенных сэмплов тишиной : Да
Удаление блоков с тишиной в начале и конце : Нет
При вычислениях CRC использовались нулевые сэмплы : Да
Интерфейс : Встроенный Win32-интерфейс для Win NT/2000
Выходной формат : Пользовательский кодировщик
Выбранный битрейт : 768 kBit/s
Качество : Высокий
Добавление ID3-тега : Нет
Утилита сжатия : C:\Program Files (x86)\Exact Audio Copy\FLAC\FLAC.EXE
Дополнительные параметры : -V -8 -T "Date=%year%" -T "Genre=%genre%" %source%
TOC извлечённого CD
Трек | Старт | Длительность | Начальный сектор | Конечный сектор
---------------------------------------------------------------------
1 | 0:00.00 | 3:52.10 | 0 | 17409
2 | 3:52.10 | 3:23.27 | 17410 | 32661
3 | 7:15.37 | 2:48.10 | 32662 | 45271
4 | 10:03.47 | 3:20.47 | 45272 | 60318
5 | 13:24.19 | 3:17.10 | 60319 | 75103
6 | 16:41.29 | 4:20.10 | 75104 | 94613
7 | 21:01.39 | 3:46.10 | 94614 | 111573
8 | 24:47.49 | 2:53.10 | 111574 | 124558
9 | 27:40.59 | 6:42.10 | 124559 | 154718
Характеристики диапазона извлечения и сообщения об ошибках
Выбранный диапазон
Имя файла C:\Users\магазин\Music\Toxik Waltz - Declassified.wav
Пиковый уровень 99.7 %
Скорость извлечения 3.6 X
Качество диапазона 100.0 %
CRC теста D886D64E
CRC копии D886D64E
Копирование... OK
Ошибок не произошло
AccurateRip: сводка
Трек 1 отсутствует в базе данных
Трек 2 отсутствует в базе данных
Трек 3 отсутствует в базе данных
Трек 4 отсутствует в базе данных
Трек 5 отсутствует в базе данных
Трек 6 отсутствует в базе данных
Трек 7 отсутствует в базе данных
Трек 8 отсутствует в базе данных
Трек 9 отсутствует в базе данных
Ни одного трека нет в базе AccurateRip
Конец отчёта
---- CUETools DB Plugin V2.1.6
[CTDB TOCID: InRbRmSN3IwdXZ0EmYt3zirw9k4-] disk not present in database
Submit result: InRbRmSN3IwdXZ0EmYt3zirw9k4- has been uploaded

To download the file disable ad blocking, and reload the page.

disable adblock How to disable ad blocking?

Download by magnet link 251 MB Download Torrent

Login using:

Загрузка...

Similar topics

(Thrash Metal) Disorder - Fuego Negro - 2017, MP3, 320 kbps
 68 MB   0 | 0   18-May-17 23:10   1
(Thrash Metal) Black Reaper - Blood Moon Rising - 2017, MP3, 320 kbps
 109 MB   0 | 0   18-May-17 23:10   0


   
Current time is: 17-Dec 13:33 :: All times are UTC + 3