Desultory / Bitterness (Reissue 2015)
Жанр: Death Metal
Носитель: CD
Страна-производитель диска (релиза): Brazil
Год издания: 1994
Издатель (лейбл): Rising Records
Номер по каталогу: RR023
Страна исполнителя (группы): Sweden,Stockholm
Аудиокодек: FLAC (*.flac)
Тип рипа: image+.cue
Битрейт аудио: lossless
Продолжительность: 01:06:41
Источник (релизер): sking019
Наличие сканов в содержимом раздачи: да
Треклист:
1 Life Shatters 5:24
2 Left Behind 3:10
3 A Closing Eye 5:28
4 Taste Of Tragedy 3:53
5 Bleeding 4:27
6 Among Mortals 3:56
7 Enslaved 4:42
8 Winter 3:57
9 Cold Bitterness 3:47
Bonus Tracks
10 Forever Gone 3:29
11 Depression 4:07
12 Visions 3:57
13 Insanity (Live) 5:00
14 Forever Gone (Live) 3:39
15 Death Unfolds (Live) 3:38
16 Symptom of the Universe (Live) 4:01

Лог создания рипа

Exact Audio Copy V1.1 from 23. June 2015
Отчёт EAC об извлечении, выполненном 19. октября 2017, 20:33
Desultory / Bitterness
Дисковод: ASUS DRW-24F1MT Adapter: 1 ID: 0
Режим чтения : Достоверность
Использование точного потока : Да
Отключение кэша аудио : Да
Использование указателей C2 : Нет
Коррекция смещения при чтении : 6
Способность читать области Lead-in и Lead-out : Нет
Заполнение пропущенных сэмплов тишиной : Да
Удаление блоков с тишиной в начале и конце : Нет
При вычислениях CRC использовались нулевые сэмплы : Да
Интерфейс : Встроенный Win32-интерфейс для Win NT/2000
Выходной формат : Пользовательский кодировщик
Выбранный битрейт : 1024 kBit/s
Качество : Высокий
Добавление ID3-тега : Нет
Утилита сжатия : C:\Program Files (x86)\Exact Audio Copy\Flac\flac.exe
Дополнительные параметры : -V -8 -T "Date=%year%" -T "Genre=%genre%" %source%
TOC извлечённого CD
Трек | Старт | Длительность | Начальный сектор | Конечный сектор
---------------------------------------------------------------------
1 | 0:00.00 | 5:24.47 | 0 | 24346
2 | 5:24.47 | 3:10.73 | 24347 | 38669
3 | 8:35.45 | 5:28.17 | 38670 | 63286
4 | 14:03.62 | 3:53.03 | 63287 | 80764
5 | 17:56.65 | 4:27.30 | 80765 | 100819
6 | 22:24.20 | 3:56.32 | 100820 | 118551
7 | 26:20.52 | 4:42.40 | 118552 | 139741
8 | 31:03.17 | 3:57.73 | 139742 | 157589
9 | 35:01.15 | 3:47.34 | 157590 | 174648
10 | 38:48.49 | 3:29.49 | 174649 | 190372
11 | 42:18.23 | 4:07.22 | 190373 | 208919
12 | 46:25.45 | 3:57.31 | 208920 | 226725
13 | 50:23.01 | 5:00.03 | 226726 | 249228
14 | 55:23.04 | 3:39.18 | 249229 | 265671
15 | 59:02.22 | 3:38.01 | 265672 | 282022
16 | 62:40.23 | 4:01.43 | 282023 | 300140
Характеристики диапазона извлечения и сообщения об ошибках
Выбранный диапазон
Имя файла G:\ВСЕ ЗАГРУЗКИ\sking\Desultory - Bitterness (1994)\Desultory - Bitterness.wav
Пиковый уровень 98.8 %
Скорость извлечения 3.1 X
Качество диапазона 99.9 %
CRC теста F56EE3F9
CRC копии F56EE3F9
Копирование... OK
Ошибок не произошло
AccurateRip: сводка
Трек 1 отсутствует в базе данных
Трек 2 отсутствует в базе данных
Трек 3 отсутствует в базе данных
Трек 4 отсутствует в базе данных
Трек 5 отсутствует в базе данных
Трек 6 отсутствует в базе данных
Трек 7 отсутствует в базе данных
Трек 8 отсутствует в базе данных
Трек 9 отсутствует в базе данных
Трек 10 отсутствует в базе данных
Трек 11 отсутствует в базе данных
Трек 12 отсутствует в базе данных
Трек 13 отсутствует в базе данных
Трек 14 отсутствует в базе данных
Трек 15 отсутствует в базе данных
Трек 16 отсутствует в базе данных
Ни одного трека нет в базе AccurateRip
Конец отчёта
---- CUETools DB Plugin V2.1.6
[CTDB TOCID: O179i7reeaFQfEV4a8z4fQB9R4s-] disk not present in database
Submit result: O179i7reeaFQfEV4a8z4fQB9R4s- has been uploaded
==== Контрольная сумма отчёта 50FF9DCE34BECE36CEC0A39362755CAC6439780E8AAD64227ACEBA2A1CB2D504 ====

Содержание индексной карты (.CUE)

REM GENRE "Death Metal"
REM DATE 1994
REM DISCID D70FA110
REM COMMENT "ExactAudioCopy v1.1"
PERFORMER "Desultory "
TITLE "Bitterness"
FILE "Desultory - Bitterness.flac" WAVE
TRACK 01 AUDIO
TITLE "Life Shatters"
PERFORMER "Desultory "
INDEX 01 00:00:00
TRACK 02 AUDIO
TITLE "Left Behind"
PERFORMER "Desultory "
INDEX 01 05:24:47
TRACK 03 AUDIO
TITLE "A Closing Eye"
PERFORMER "Desultory "
INDEX 01 08:35:45
TRACK 04 AUDIO
TITLE "Taste Of Tragedy"
PERFORMER "Desultory "
INDEX 01 14:03:62
TRACK 05 AUDIO
TITLE "Bleeding"
PERFORMER "Desultory "
INDEX 01 17:56:65
TRACK 06 AUDIO
TITLE "Among Mortals"
PERFORMER "Desultory "
INDEX 01 22:24:20
TRACK 07 AUDIO
TITLE "Enslaved"
PERFORMER "Desultory "
INDEX 01 26:20:52
TRACK 08 AUDIO
TITLE "Winter"
PERFORMER "Desultory "
INDEX 01 31:03:17
TRACK 09 AUDIO
TITLE "Cold Bitterness"
PERFORMER "Desultory "
INDEX 01 35:01:15
TRACK 10 AUDIO
TITLE "Forever Gone"
PERFORMER "Desultory "
INDEX 01 38:48:49
TRACK 11 AUDIO
TITLE "Depression"
PERFORMER "Desultory "
INDEX 01 42:18:23
TRACK 12 AUDIO
TITLE "Visions"
PERFORMER "Desultory "
INDEX 01 46:25:45
TRACK 13 AUDIO
TITLE "Insanity (Live)"
PERFORMER "Desultory "
INDEX 00 50:23:00
INDEX 01 50:23:01
TRACK 14 AUDIO
TITLE "Forever Gone (Live)"
PERFORMER "Desultory "
INDEX 01 55:23:04
TRACK 15 AUDIO
TITLE " Death Unfolds (Live)"
PERFORMER "Desultory "
INDEX 01 59:02:22
TRACK 16 AUDIO
TITLE "Symptom of the Universe (Live)"
PERFORMER "Desultory "
INDEX 01 62:40:23
Доп. информация: 4 Panel Digipak Under license of Metal Blade Records.

Об исполнителе (группе)

https://www.metal-archives.com/bands/Desultory/577

Об альбоме (сборнике)

https://www.discogs.com/Desultory-Bitterness/release/8118936

Состав

Для скачивания файла отключите блокировку рекламы и перезагрузите страницу.

disable adblock Как отключить блокировку рекламы?

Скачать по магнет ссылке 443 MB 

Войти с помощью:

Похожие раздачи

Внимание! Контент 18+ если вы младше данного возраста, НЕ переходите по ссылке!!!


   
Текущее время: 14-Авг 22:55 :: Часовой пояс: UTC ± 0