Devangelic / Phlegethon
Жанр: Brutal Death Metal
Носитель: CD
Год издания: 2017
Издатель (лейбл): Comatose Music
Страна исполнителя (группы): Italy
Аудиокодек: FLAC (*.flac)
Тип рипа: tracks+.cue
Битрейт аудио: lossless
Продолжительность: 49:03
Источник (релизер): IllInTheHead
Наличие сканов в содержимом раздачи: нет
Треклист:
01. Plagued by Obscurity 04:28
02. Mutilation Above Salvation 04:03
03. Of Maggots and Disease 04:37
04. Malus Invictus 04:02
05. Abominated Impurity of the Oppressed 04:12
06. Condemned to Dismemberment 04:07
07. Wretched Incantations 02:13
08. Manifestation of Agony 04:06
09. Decaying Suffering 04:08
10. Asphyxiation upon Phlegethon 04:48
11. He Who Sleeps (Morbid Angel Cover) 4:03
12. Abominated Impurity of the Oppressed (Promo 2016) 4:12

Лог EAC

Exact Audio Copy V1.3 from 2. September 2016
EAC extraction logfile from 17. October 2017, 1:43
Devangelic / Phlegethon
Used drive : Optiarc DVD RW AD-7740H Adapter: 1 ID: 0
Read mode : Secure
Utilize accurate stream : Yes
Defeat audio cache : Yes
Make use of C2 pointers : No
Read offset correction : 48
Overread into Lead-In and Lead-Out : No
Fill up missing offset samples with silence : Yes
Delete leading and trailing silent blocks : No
Null samples used in CRC calculations : Yes
Used interface : Native Win32 interface for Win NT & 2000
Gap handling : Appended to previous track
Used output format : User Defined Encoder
Selected bitrate : 1024 kBit/s
Quality : High
Add ID3 tag : No
Command line compressor : C:\Program Files (x86)\Exact Audio Copy\Flac\flac.exe
Additional command line options : -8 -e -p -V -T "ARTIST=%artist%" -T "TITLE=%title%" -T "ALBUM=%albumtitle%" -T "DATE=%year%" -T "TRACKNUMBER=%tracknr%" -T "GENRE=%genre%" -T "PERFORMER=%albuminterpret%" -T "COMPOSER=%composer%" %haslyrics%--tag-from-file=LYRICS="%lyricsfile%"%haslyrics% -T "ALBUMARTIST=%albumartist%" -T "DISCNUMBER=%cdnumber%" -T "TOTALDISCS=%totalcds%" -T "TOTALTRACKS=%numtracks%" -T "COMMENT=%comment%" %source% -o %dest%
TOC of the extracted CD
Track | Start | Length | Start sector | End sector
---------------------------------------------------------
1 | 0:00.00 | 4:28.26 | 0 | 20125
2 | 4:28.26 | 4:03.04 | 20126 | 38354
3 | 8:31.30 | 4:37.02 | 38355 | 59131
4 | 13:08.32 | 4:02.44 | 59132 | 77325
5 | 17:11.01 | 4:12.51 | 77326 | 96276
6 | 21:23.52 | 4:07.62 | 96277 | 114863
7 | 25:31.39 | 2:13.50 | 114864 | 124888
8 | 27:45.14 | 4:06.52 | 124889 | 143390
9 | 31:51.66 | 4:08.27 | 143391 | 162017
10 | 36:00.18 | 4:48.15 | 162018 | 183632
11 | 40:48.33 | 4:03.00 | 183633 | 201857
12 | 44:51.33 | 4:12.02 | 201858 | 220759
Track 1
Filename C:\EAC Rips\Devangelic - Phlegethon (2017 - COMA 100 LTD US) - FLAC\01 - Plagued by Obscurity.wav
Pre-gap length 0:00:02.00
Peak level 99.6 %
Extraction speed 1.1 X
Track quality 100.0 %
Test CRC 34944B46
Copy CRC 34944B46
Track not present in AccurateRip database
Copy OK
Track 2
Filename C:\EAC Rips\Devangelic - Phlegethon (2017 - COMA 100 LTD US) - FLAC\02 - Mutilation Above Salvation.wav
Pre-gap length 0:00:02.00
Peak level 99.6 %
Extraction speed 1.2 X
Track quality 100.0 %
Test CRC 0150B1DE
Copy CRC 0150B1DE
Track not present in AccurateRip database
Copy OK
Track 3
Filename C:\EAC Rips\Devangelic - Phlegethon (2017 - COMA 100 LTD US) - FLAC\03 - Of Maggots and Disease.wav
Pre-gap length 0:00:02.00
Peak level 99.6 %
Extraction speed 1.4 X
Track quality 100.0 %
Test CRC 762D06DE
Copy CRC 762D06DE
Track not present in AccurateRip database
Copy OK
Track 4
Filename C:\EAC Rips\Devangelic - Phlegethon (2017 - COMA 100 LTD US) - FLAC\04 - Malus Invictus.wav
Pre-gap length 0:00:02.00
Peak level 99.6 %
Extraction speed 1.5 X
Track quality 100.0 %
Test CRC 0970A1DA
Copy CRC 0970A1DA
Track not present in AccurateRip database
Copy OK
Track 5
Filename C:\EAC Rips\Devangelic - Phlegethon (2017 - COMA 100 LTD US) - FLAC\05 - Abominated Impurity of the Oppressed.wav
Pre-gap length 0:00:02.00
Peak level 99.6 %
Extraction speed 1.4 X
Track quality 99.9 %
Test CRC 82737BCC
Copy CRC 82737BCC
Track not present in AccurateRip database
Copy OK
Track 6
Filename C:\EAC Rips\Devangelic - Phlegethon (2017 - COMA 100 LTD US) - FLAC\06 - Condemned to Dismemberment.wav
Pre-gap length 0:00:02.00
Peak level 99.6 %
Extraction speed 1.7 X
Track quality 100.0 %
Test CRC A7FCD69D
Copy CRC A7FCD69D
Track not present in AccurateRip database
Copy OK
Track 7
Filename C:\EAC Rips\Devangelic - Phlegethon (2017 - COMA 100 LTD US) - FLAC\07 - Wretched Incantations.wav
Pre-gap length 0:00:02.00
Peak level 99.6 %
Extraction speed 1.6 X
Track quality 100.0 %
Test CRC 06FB19BB
Copy CRC 06FB19BB
Track not present in AccurateRip database
Copy OK
Track 8
Filename C:\EAC Rips\Devangelic - Phlegethon (2017 - COMA 100 LTD US) - FLAC\08 - Manifestation of Agony.wav
Pre-gap length 0:00:02.00
Peak level 99.6 %
Extraction speed 1.8 X
Track quality 100.0 %
Test CRC 830A4544
Copy CRC 830A4544
Track not present in AccurateRip database
Copy OK
Track 9
Filename C:\EAC Rips\Devangelic - Phlegethon (2017 - COMA 100 LTD US) - FLAC\09 - Decaying Suffering.wav
Pre-gap length 0:00:02.00
Peak level 99.6 %
Extraction speed 1.9 X
Track quality 100.0 %
Test CRC 814FD50E
Copy CRC 814FD50E
Track not present in AccurateRip database
Copy OK
Track 10
Filename C:\EAC Rips\Devangelic - Phlegethon (2017 - COMA 100 LTD US) - FLAC\10 - Asphyxiation Upon Phlegethon.wav
Pre-gap length 0:00:02.00
Peak level 99.6 %
Extraction speed 2.0 X
Track quality 100.0 %
Test CRC 9B77FA8E
Copy CRC 9B77FA8E
Track not present in AccurateRip database
Copy OK
Track 11
Filename C:\EAC Rips\Devangelic - Phlegethon (2017 - COMA 100 LTD US) - FLAC\11 - He Who Sleeps (Morbid Angel Cover).wav
Pre-gap length 0:00:02.00
Peak level 99.6 %
Extraction speed 1.8 X
Track quality 99.9 %
Test CRC 787EC42E
Copy CRC 787EC42E
Track not present in AccurateRip database
Copy OK
Track 12
Filename C:\EAC Rips\Devangelic - Phlegethon (2017 - COMA 100 LTD US) - FLAC\12 - Abominated Impurity of the Oppressed (Promo 2016).wav
Pre-gap length 0:00:02.00
Peak level 100.0 %
Extraction speed 1.9 X
Track quality 99.9 %
Test CRC A2BEE033
Copy CRC A2BEE033
Track not present in AccurateRip database
Copy OK
None of the tracks are present in the AccurateRip database
No errors occurred
End of status report
---- CUETools DB Plugin V2.1.6
[CTDB TOCID: 14WcrF_YD.pWB1qppwD7EjUeS8g-] disk not present in database
Submit result: 14WcrF_YD.pWB1qppwD7EjUeS8g- has been uploaded
==== Log checksum E3B7D5FDFD1A5D77A962C29973EA53153D2EA85AE6D45163AB883F5C19CF693C ====

Содержание индексной карты (.CUE)

REM DATE 2017
REM DISCID 930B7F0C
REM COMMENT "ExactAudioCopy v1.3"
PERFORMER "Devangelic"
TITLE "Phlegethon "
REM COMPOSER ""
FILE "01 - Plagued by Obscurity.wav" WAVE
TRACK 01 AUDIO
TITLE "Plagued by Obscurity "
PERFORMER "Devangelic"
REM COMPOSER ""
FLAGS DCP
INDEX 01 00:00:00
TRACK 02 AUDIO
TITLE "Mutilation Above Salvation "
PERFORMER "Devangelic"
REM COMPOSER ""
FLAGS DCP
INDEX 00 04:26:26
FILE "02 - Mutilation Above Salvation.wav" WAVE
INDEX 01 00:00:00
TRACK 03 AUDIO
TITLE "Of Maggots and Disease "
PERFORMER "Devangelic"
REM COMPOSER ""
FLAGS DCP
INDEX 00 04:01:04
FILE "03 - Of Maggots and Disease.wav" WAVE
INDEX 01 00:00:00
TRACK 04 AUDIO
TITLE "Malus Invictus "
PERFORMER "Devangelic"
REM COMPOSER ""
FLAGS DCP
INDEX 00 04:35:02
FILE "04 - Malus Invictus.wav" WAVE
INDEX 01 00:00:00
TRACK 05 AUDIO
TITLE "Abominated Impurity of the Oppressed "
PERFORMER "Devangelic"
REM COMPOSER ""
FLAGS DCP
INDEX 00 04:00:44
FILE "05 - Abominated Impurity of the Oppressed.wav" WAVE
INDEX 01 00:00:00
TRACK 06 AUDIO
TITLE "Condemned to Dismemberment "
PERFORMER "Devangelic"
REM COMPOSER ""
FLAGS DCP
INDEX 00 04:10:51
FILE "06 - Condemned to Dismemberment.wav" WAVE
INDEX 01 00:00:00
TRACK 07 AUDIO
TITLE "Wretched Incantations "
PERFORMER "Devangelic"
REM COMPOSER ""
FLAGS DCP
INDEX 00 04:05:62
FILE "07 - Wretched Incantations.wav" WAVE
INDEX 01 00:00:00
TRACK 08 AUDIO
TITLE "Manifestation of Agony "
PERFORMER "Devangelic"
REM COMPOSER ""
FLAGS DCP
INDEX 00 02:11:50
FILE "08 - Manifestation of Agony.wav" WAVE
INDEX 01 00:00:00
TRACK 09 AUDIO
TITLE "Decaying Suffering "
PERFORMER "Devangelic"
REM COMPOSER ""
FLAGS DCP
INDEX 00 04:04:52
FILE "09 - Decaying Suffering.wav" WAVE
INDEX 01 00:00:00
TRACK 10 AUDIO
TITLE "Asphyxiation Upon Phlegethon "
PERFORMER "Devangelic"
REM COMPOSER ""
FLAGS DCP
INDEX 00 04:06:27
FILE "10 - Asphyxiation Upon Phlegethon.wav" WAVE
INDEX 01 00:00:00
TRACK 11 AUDIO
TITLE "He Who Sleeps (Morbid Angel Cover)"
PERFORMER "Devangelic"
REM COMPOSER ""
FLAGS DCP
INDEX 00 04:46:15
FILE "11 - He Who Sleeps (Morbid Angel Cover).wav" WAVE
INDEX 01 00:00:00
TRACK 12 AUDIO
TITLE "Abominated Impurity of the Oppressed (Promo 2016)"
PERFORMER "Devangelic"
REM COMPOSER ""
FLAGS DCP
INDEX 00 04:01:00
FILE "12 - Abominated Impurity of the Oppressed (Promo 2016).wav" WAVE
INDEX 01 00:00:00

Скриншот спектра частот

Состав

Guitars - Mario Di Giambattista (Corpsefucking Art, Stench of Dismemberment, Vulvectomy)
Vocals - Paolo Chiti (Antropofagus, Interminable Corruptions)
Bass - Damiano Bracci (Whiskey & Funeral)
Drums - Marco Coghe (Catastrophic Evolution, Interminable Corruptions, Posthuman Abomination)
Доп. информация:

Для скачивания файла отключите блокировку рекламы и перезагрузите страницу.

disable adblock Как отключить блокировку рекламы?

Скачать по магнет ссылке 354 MB 

Войти с помощью:

Похожие раздачи

Внимание! Контент 18+ если вы младше данного возраста, НЕ переходите по ссылке!!!
(Brutal Death Metal) Cadavoracity - Remnants of Chaotic Apogee - 2015, MP3, V0
 51 MB   0 | 0   26-Май-17 02:39   0
(Brutal Death Metal) Castrensis - Hierarchies - 2015, MP3, 320 kbps
 59 MB   0 | 0   26-Май-17 02:39   0


   
Текущее время: 17-Авг 11:28 :: Часовой пояс: UTC ± 0