AmenRa / Mass VI
Жанр: Post-Metal / Sludge
Носитель: CD
Год издания: 2017
Страна исполнителя (группы): Belgium
Аудиокодек: FLAC (*.flac)
Тип рипа: tracks+.cue
Битрейт аудио: lossless
Продолжительность: 00:40:52
Источник (релизер): funkysouls.com
Наличие сканов в содержимом раздачи: нет
Треклист:
01. Children of the Eye 09:41
02. Edelkroone 00:23
03. Plus Pres de Toi (Closer to You) 08:40
04. Spijt 01:59
05. A Solitary Reign 09:04
06. Diaken 11:04

Лог создания рипа

Exact Audio Copy V1.0 beta 3 from 29. August 2011
EAC extraction logfile from 16. October 2017, 17:29
Amenra / Mass VI
Used drive : HL-DT-STBDDVDRW UH12NS30 Adapter: 0 ID: 0
Read mode : Secure
Utilize accurate stream : Yes
Defeat audio cache : Yes
Make use of C2 pointers : No
Read offset correction : 6
Overread into Lead-In and Lead-Out : No
Fill up missing offset samples with silence : Yes
Delete leading and trailing silent blocks : No
Null samples used in CRC calculations : Yes
Used interface : Native Win32 interface for Win NT & 2000
Gap handling : Appended to previous track
Used output format : User Defined Encoder
Selected bitrate : 320 kBit/s
Quality : High
Add ID3 tag : No
Command line compressor : C:\Program Files (x86)\Exact Audio Copy\Flac\flac.exe
Additional command line options : -V -8 -T "artist=%artist%" -T "title=%title%" -T "album=%albumtitle%" -T "date=%year%" -T "tracknumber=%tracknr%" -T "genre=%genre%" %source%
TOC of the extracted CD
Track | Start | Length | Start sector | End sector
---------------------------------------------------------
1 | 0:00.00 | 9:41.02 | 0 | 43576
2 | 9:41.02 | 0:23.02 | 43577 | 45303
3 | 10:04.04 | 8:40.05 | 45304 | 84308
4 | 18:44.09 | 1:59.06 | 84309 | 93239
5 | 20:43.15 | 9:04.17 | 93240 | 134056
6 | 29:47.32 | 11:04.43 | 134057 | 183899
Track 1
Filename D:\PTH Uploads\Amenra - Mass VI (2017)\01 Children of the Eye.wav
Pre-gap length 0:00:02.00
Peak level 94.4 %
Extraction speed 4.0 X
Track quality 100.0 %
Test CRC 7B399473
Copy CRC 7B399473
Track not present in AccurateRip database
Copy OK
Track 2
Filename D:\PTH Uploads\Amenra - Mass VI (2017)\02 Edelkroone.wav
Peak level 15.7 %
Extraction speed 1.3 X
Track quality 100.0 %
Test CRC CCF28F29
Copy CRC CCF28F29
Track not present in AccurateRip database
Copy OK
Track 3
Filename D:\PTH Uploads\Amenra - Mass VI (2017)\03 Plus Près De Toi.wav
Peak level 94.6 %
Extraction speed 1.5 X
Track quality 100.0 %
Test CRC 79CF27A1
Copy CRC 79CF27A1
Track not present in AccurateRip database
Copy OK
Track 4
Filename D:\PTH Uploads\Amenra - Mass VI (2017)\04 Spijt.wav
Peak level 94.4 %
Extraction speed 1.3 X
Track quality 100.0 %
Test CRC AC013449
Copy CRC AC013449
Track not present in AccurateRip database
Copy OK
Track 5
Filename D:\PTH Uploads\Amenra - Mass VI (2017)\05 A Solitary Reign.wav
Peak level 94.5 %
Extraction speed 1.7 X
Track quality 100.0 %
Test CRC 3FDAD170
Copy CRC 3FDAD170
Track not present in AccurateRip database
Copy OK
Track 6
Filename D:\PTH Uploads\Amenra - Mass VI (2017)\06 Diaken.wav
Peak level 94.6 %
Extraction speed 1.9 X
Track quality 100.0 %
Test CRC 85E9F009
Copy CRC 85E9F009
Track not present in AccurateRip database
Copy OK
None of the tracks are present in the AccurateRip database
No errors occurred
End of status report
==== Log checksum BD7D360EB99A2AADF2B2F95662F71BB8DAECEA658DF7EEF65CF7A6FADBF53214 ====

Содержание индексной карты (.CUE)

REM GENRE "Sludge Metal"
REM DATE 2017
REM DISCID 4D099406
REM COMMENT "ExactAudioCopy v1.0b3"
PERFORMER "Amenra"
TITLE "Mass VI"
FILE "01 Children of the Eye.wav" WAVE
TRACK 01 AUDIO
TITLE "Children of the Eye"
PERFORMER "Amenra"
INDEX 01 00:00:00
FILE "02 Edelkroone.wav" WAVE
TRACK 02 AUDIO
TITLE "Edelkroone"
PERFORMER "Amenra"
INDEX 01 00:00:00
FILE "03 Plus Pre`s De Toi.wav" WAVE
TRACK 03 AUDIO
TITLE "Plus Pre`s De Toi"
PERFORMER "Amenra"
INDEX 01 00:00:00
FILE "04 Spijt.wav" WAVE
TRACK 04 AUDIO
TITLE "Spijt"
PERFORMER "Amenra"
INDEX 01 00:00:00
FILE "05 A Solitary Reign.wav" WAVE
TRACK 05 AUDIO
TITLE "A Solitary Reign"
PERFORMER "Amenra"
INDEX 01 00:00:00
FILE "06 Diaken.wav" WAVE
TRACK 06 AUDIO
TITLE "Diaken"
PERFORMER "Amenra"
INDEX 01 00:00:00

Об альбоме (сборнике)

Recorded by Billy Anderson & Lukas Report at Daft Studios,
Manufacture de Malmedy BE.
Mixed and mastered by Jack Shirley at Atomic Garden,
San Francisco, USA.
Photography by Stephan Vanfleteren.
Layout by We Became Aware.

Состав

Colin H. van Eeckhout – vocals
Mathieu J. Vandekerckhove – guitars
Bjorn J. Lebon – drums
Lennart Bossu – guitars
Levy Seynaeve – bass

Для скачивания файла отключите блокировку рекламы и перезагрузите страницу.

disable adblock Как отключить блокировку рекламы?

Скачать по магнет ссылке 238 MB 

Войти с помощью:

Похожие раздачи

Внимание! Контент 18+ если вы младше данного возраста, НЕ переходите по ссылке!!!
(Atmospheric Sludge | Post-Metal) Ingrina - Etter Lys - 2018, MP3, 320 kbps
 120 MB   0 | 0   Вчера, в 02:50   0


   
Текущее время: 17-Авг 11:26 :: Часовой пояс: UTC ± 0