Информация о фильме
Название: Ненастоящий вампир
Оригинальное название: Liar, Liar, Vampire
Год выхода: 2015
Жанр: комедия, семейный
Режиссер: Винс Марселло
В ролях: Тиера Сковбай, Сара Грэй, Оливия Райан Штерн, Рахарт Адамс, Брэк Бэссинджер, Ларисса Альбукерке, Сэмюэл Патрик Чу, Тай Вуд, Алекс Захара, Дрю Тэннер
О фильме:
Главный герой — Дэвис, с виду вроде вполне обычный парень, который всегда старается оставаться в тени и не привлекать внимания к своей скромной персоне. Но парню это не к лицу, и Дэвис решает исправить ситуацию. Однако наш герой решил пойти на хитрость, а точнее — соврать всем, что он вампир. Парень подумал, что такой персонаж будет пользоваться популярностью, ведь фильмы про вампиров смотрят все. И он не прогадал. Популярность Дэвиса очень быстро разнеслась по всей школе, и уже скоро познакомиться с Дэвисом решает некто по имени Кэмерон, который долгое время занимается изучением вампиров. Он очень быстро раскусывает обман парня, но решает ему подыграть. Но раскроется ли в конце концов обман Дэвиса и узнают ли остальные то, что он не настоящий вампир?

Производство: США / Pacific Bay Entertainment, Pacific Bay Entertainment Canada
Продолжительность: 01:07:57
Перевод: дублированный (Nickelodeon)
Файл
Качество: HDTVRip 720p
Формат: MKV
Видео: MPEG-4 AVC, 1280x720 (16:9), 23.976 fps, 3263 kbps, 0.148 bit/pixel
Аудио #1: русский, AC3 2.0, 48 kHz, 192 kbps
Аудио #2: английский, AC3 2.0, 48 kHz, 192 kbps

MediaInfo

Формат : Matroska
Версия формата : Version 4 / Version 2
Размер файла : 1,77 Гбайт
Продолжительность : 1 ч. 7 м.
Режим общего битрейта : Переменный
Общий поток : 3721 Кбит/сек
Дата кодирования : UTC 2017-10-17 11:39:40
Программа кодирования : mkvmerge v7.9.0 ('Birds') 64bit
Библиотека кодирования : libebml v1.3.1 + libmatroska v1.4.2
DURATION : 01:07:57.792000000
NUMBER_OF_FRAMES : 127431
NUMBER_OF_BYTES : 97867008
_STATISTICS_WRITING_APP : mkvmerge v7.2.0 ('On Every Street') 32bit built on Sep 13 2014 15:42:11
_STATISTICS_WRITING_DATE_UTC : 2015-12-03 13:41:56
_STATISTICS_TAGS : BPS DURATION NUMBER_OF_FRAMES NUMBER_OF_BYTES
Видео
Идентификатор : 1
Формат : AVC
Формат/Информация : Advanced Video Codec
Профиль формата : Main@L3.2
Параметр CABAC формата : Да
Параметр ReFrames формата : 4 кадра
Идентификатор кодека : V_MPEG4/ISO/AVC
Продолжительность : 1 ч. 7 м.
Вид битрейта : Переменный
Битрейт : 3263 Кбит/сек
Максимальный битрейт : 6808 Кбит/сек
Ширина : 1280 пикселей
Высота : 720 пикселей
Соотношение сторон : 16:9
Режим частоты кадров : Постоянный
Частота кадров : 23,976 кадра/сек
Цветовое пространство : YUV
Субдискретизация насыщенности : 4:2:0
Битовая глубина : 8 бит
Тип развёртки : Прогрессивная
Бит/(Пиксели*Кадры) : 0.148
Размер потока : 1,55 Гбайт (88%)
Язык : English
Default : Да
Forced : Нет
Цветовой диапазон : Limited
Аудио #1
Идентификатор : 2
Формат : AC-3
Формат/Информация : Audio Coding 3
Расширение режима : CM (complete main)
Параметр Endianness формата : Big
Идентификатор кодека : A_AC3
Продолжительность : 1 ч. 7 м.
Вид битрейта : Постоянный
Битрейт : 192 Кбит/сек
Каналы : 2 канала
Расположение каналов : Front: L R
Частота : 48,0 КГц
Метод сжатия : С потерями
Задержка видео : -42 мс.
Размер потока : 93,3 Мбайт (5%)
Язык : Russian
Default : Да
Forced : Нет
Аудио #2
Идентификатор : 3
Формат : AC-3
Формат/Информация : Audio Coding 3
Расширение режима : CM (complete main)
Параметр Endianness формата : Big
Идентификатор кодека : A_AC3
Продолжительность : 1 ч. 7 м.
Вид битрейта : Постоянный
Битрейт : 192 Кбит/сек
Каналы : 2 канала
Расположение каналов : Front: L R
Частота : 48,0 КГц
Метод сжатия : С потерями
Задержка видео : -42 мс.
Размер потока : 93,3 Мбайт (5%)
Язык : English
Default : Нет
Forced : Нет

Для скачивания файла отключите блокировку рекламы и перезагрузите страницу.

disable adblock Как отключить блокировку рекламы?

Скачать по магнет ссылке 1,77 GB 

Войти с помощью:

Похожие раздачи

Внимание! Контент 18+ если вы младше данного возраста, НЕ переходите по ссылке!!!


   
Текущее время: 14-Авг 22:55 :: Часовой пояс: UTC ± 0