Информация о фильме
Название: Выжить
Оригинальное название: Alive
Год выпуска: 1993
Жанр: триллер, драма, приключения, история
Выпущено: США, Film Andes, Paramount Pictures
Продолжительность: 02:06:25
Перевод: Профессиональный многоголосый, профессиональный двухголосый, авторский
Режиссер: Фрэнк Маршалл
В ролях: Винсент Спано, Иллеана Дуглас, Джон Ньютон, Дэвид Кригель, Кевин Брезнахэн, Итэн Хоук, Джош Хэмилтон, Сэм Беренс, Джек Ноузворфи, Брюс Рамсей-О фильме:
Осенью 1972 года в пятницу тринадцатого октября над Андами потерпел катастрофу авиалайнер, на борту которого находилась школьная сборная по регби из Уругвая. Самолет рухнул на высокогорное плато, которое было полностью отрезано от внешнего мира. Здесь, среди дикой стужи и трупов, горстке оставшихся в живых школьников предстоял жестокий, нечеловеческий тест на выживание. Семьдесят два бесконечных, мучительных дня молодые люди боролись за свою жизнь.-
Файл
Качество: WEB-DLRip 720p
Видео: MPEG-4 AVC, 4425 Кбит/сек, 1280x720, 23,976 кадра/сек
Аудио 1: AC3, 6 ch, 448 Кбит/сек |Профессиональный многоголосый|
Аудио 2: AC3, 2 ch, 192 Кбит/сек |Профессиональный двухголосый, Премьер Видео|
Аудио 3: AC3, 2 ch, 192 Кбит/сек |Профессиональный двухголосый, НТВ+|
Аудио 4: AC3, 2 ch, 192 Кбит/сек |Авторский одноголосый, А. Гаврилов|
Аудио 5: AC3, 2 ch, 192 Кбит/сек |Авторский одноголосый, Ю. Живов|
Аудио 6: AC3, 6 ch, 448 Кбит/сек |Оригинал|
Субтитры: Русские, английские
Навигация по главам: есть-Релиз от: mzma

MediaInfo

x264 [info]: frame I:1048 Avg QP:13.92 size: 131657
x264 [info]: frame P:37977 Avg QP:17.28 size: 50065
x264 [info]: frame B:142826 Avg QP:19.33 size: 15223
-------------------------------------------------------------------------
Общее
Уникальный идентификатор : 201234857166274407022469811952334779484 (0x97646C79611BE519A4902239971DB45C)
Полное имя : Выжить.1993.WEB-DLRip.720p.KORSAR.mkv
Формат : Matroska
Версия формата : Version 2
Размер файла : 5,38 Гбайт
Продолжительность : 2 ч. 6 м.
Общий поток : 6092 Кбит/сек
Дата кодирования : UTC 2017-08-25 12:22:12
Программа кодирования : mkvmerge v5.8.0 ('No Sleep / Pillow') built on Sep 2 2012 15:37:04
Библиотека кодирования : libebml v1.2.3 + libmatroska v1.3.0
Видео
Идентификатор : 1
Формат : AVC
Формат/Информация : Advanced Video Codec
Профиль формата : High@L4.1
Параметр CABAC формата : Да
Параметр ReFrames формата : 9 кадров
Идентификатор кодека : V_MPEG4/ISO/AVC
Продолжительность : 2 ч. 6 м.
Битрейт : 4425 Кбит/сек
Ширина : 1280 пикселей
Высота : 720 пикселей
Соотношение сторон : 16:9
Режим частоты кадров : Постоянный
Частота кадров : 23,976 (24000/1001) кадра/сек
Цветовое пространство : YUV
Субдискретизация насыщенности : 4:2:0
Битовая глубина : 8 бит
Тип развёртки : Прогрессивная
Бит/(Пиксели*Кадры) : 0.200
Размер потока : 3,80 Гбайт (71%)
Заголовок : RIP | MZMA
Библиотека кодирования : x264 core 148 r2638 7599210
Настройки программы : cabac=1 / ref=9 / deblock=1:-1:-1 / analyse=0x3:0x113 / me=umh / subme=11 / psy=1 / psy_rd=1.00:0.00 / mixed_ref=1 / me_range=48 / chroma_me=1 / trellis=2 / 8x8dct=1 / cqm=0 / deadzone=21,11 / fast_pskip=0 / chroma_qp_offset=-2 / threads=6 / lookahead_threads=1 / sliced_threads=0 / nr=0 / decimate=0 / interlaced=0 / bluray_compat=0 / constrained_intra=0 / bframes=16 / b_pyramid=2 / b_adapt=2 / b_bias=0 / direct=3 / weightb=1 / open_gop=0 / weightp=2 / keyint=250 / keyint_min=23 / scenecut=40 / intra_refresh=0 / rc_lookahead=60 / rc=2pass / mbtree=1 / bitrate=4425 / ratetol=1.0 / qcomp=0.60 / qpmin=0 / qpmax=69 / qpstep=4 / cplxblur=20.0 / qblur=0.5 / vbv_maxrate=50000 / vbv_bufsize=62500 / nal_hrd=none / filler=0 / ip_ratio=1.40 / aq=1:1.00
Язык : English
Default : Да
Forced : Нет
Цветовой диапазон : Limited
Основные цвета : BT.709
Характеристики трансфера : BT.709
Коэффициенты матрицы : BT.709
Аудио #1
Идентификатор : 2
Формат : AC-3
Формат/Информация : Audio Coding 3
Параметр Endianness формата : Big
Идентификатор кодека : A_AC3
Продолжительность : 2 ч. 6 м.
Вид битрейта : Постоянный
Битрейт : 448 Кбит/сек
Каналы : 6 каналов
Расположение каналов : Front: L C R, Side: L R, LFE
Частота : 48,0 КГц
Частота кадров : 31,250 кадров/сек (1536 spf)
Битовая глубина : 16 бит
Метод сжатия : С потерями
Размер потока : 405 Мбайт (7%)
Заголовок : MVO
Язык : Russian
Default : Да
Forced : Нет
Аудио #2
Идентификатор : 3
Формат : AC-3
Формат/Информация : Audio Coding 3
Параметр Endianness формата : Big
Идентификатор кодека : A_AC3
Продолжительность : 2 ч. 6 м.
Вид битрейта : Постоянный
Битрейт : 192 Кбит/сек
Каналы : 2 канала
Расположение каналов : Front: L R
Частота : 48,0 КГц
Частота кадров : 31,250 кадров/сек (1536 spf)
Битовая глубина : 16 бит
Метод сжатия : С потерями
Размер потока : 174 Мбайт (3%)
Заголовок : DVO | Премьер Видео Фильм
Язык : Russian
Default : Нет
Forced : Нет
Аудио #3
Идентификатор : 4
Формат : AC-3
Формат/Информация : Audio Coding 3
Параметр Endianness формата : Big
Идентификатор кодека : A_AC3
Продолжительность : 2 ч. 6 м.
Вид битрейта : Постоянный
Битрейт : 192 Кбит/сек
Каналы : 2 канала
Расположение каналов : Front: L R
Частота : 48,0 КГц
Частота кадров : 31,250 кадров/сек (1536 spf)
Битовая глубина : 16 бит
Метод сжатия : С потерями
Размер потока : 174 Мбайт (3%)
Заголовок : DVO | НТВ+
Язык : Russian
Default : Нет
Forced : Нет
Аудио #4
Идентификатор : 5
Формат : AC-3
Формат/Информация : Audio Coding 3
Параметр Endianness формата : Big
Идентификатор кодека : A_AC3
Продолжительность : 2 ч. 6 м.
Вид битрейта : Постоянный
Битрейт : 192 Кбит/сек
Каналы : 2 канала
Расположение каналов : Front: L R
Частота : 48,0 КГц
Частота кадров : 31,250 кадров/сек (1536 spf)
Битовая глубина : 16 бит
Метод сжатия : С потерями
Размер потока : 174 Мбайт (3%)
Заголовок : AVO | А. Гаврилов
Язык : Russian
Default : Нет
Forced : Нет
Аудио #5
Идентификатор : 6
Формат : AC-3
Формат/Информация : Audio Coding 3
Параметр Endianness формата : Big
Идентификатор кодека : A_AC3
Продолжительность : 2 ч. 6 м.
Вид битрейта : Постоянный
Битрейт : 192 Кбит/сек
Каналы : 2 канала
Расположение каналов : Front: L R
Частота : 48,0 КГц
Частота кадров : 31,250 кадров/сек (1536 spf)
Битовая глубина : 16 бит
Метод сжатия : С потерями
Размер потока : 174 Мбайт (3%)
Заголовок : AVO | Ю. Живов
Язык : Russian
Default : Нет
Forced : Нет
Аудио #6
Идентификатор : 7
Формат : AC-3
Формат/Информация : Audio Coding 3
Параметр Endianness формата : Big
Идентификатор кодека : A_AC3
Продолжительность : 2 ч. 6 м.
Вид битрейта : Постоянный
Битрейт : 448 Кбит/сек
Каналы : 6 каналов
Расположение каналов : Front: L C R, Side: L R, LFE
Частота : 48,0 КГц
Частота кадров : 31,250 кадров/сек (1536 spf)
Битовая глубина : 16 бит
Метод сжатия : С потерями
Размер потока : 405 Мбайт (7%)
Заголовок : Original
Язык : English
Default : Нет
Forced : Нет
Текст #1
Идентификатор : 8
Формат : UTF-8
Идентификатор кодека : S_TEXT/UTF8
Идентификатор кодека/Информация : UTF-8 Plain Text
Язык : Russian
Default : Нет
Forced : Нет
Текст #2
Идентификатор : 9
Формат : UTF-8
Идентификатор кодека : S_TEXT/UTF8
Идентификатор кодека/Информация : UTF-8 Plain Text
Язык : English
Default : Нет
Forced : Нет
Меню
00:00:00.000 : en:Chapter 01
00:07:09.927 : en:Chapter 02
00:16:46.253 : en:Chapter 03
00:24:30.425 : en:Chapter 04
00:28:19.862 : en:Chapter 05
00:38:49.408 : en:Chapter 06
00:46:33.455 : en:Chapter 07
00:59:49.667 : en:Chapter 08
01:08:44.868 : en:Chapter 09
01:17:03.908 : en:Chapter 10
01:24:11.377 : en:Chapter 11
01:30:07.149 : en:Chapter 12
01:41:20.739 : en:Chapter 13
01:46:55.406 : en:Chapter 14
01:57:24.868 : en:Chapter 15
02:00:41.356 : en:Chapter 16

Сравнение с исходником

http://screenshotcomparison.com/comparison/115669/

To download the file disable ad blocking, and reload the page.

disable adblock How to disable ad blocking?

Download by magnet link 5.38 GB Download Torrent

Login using:

Загрузка...

Similar topics

Остров проклятых / Shutter Island (2010) BDRip 1080p
 7.76 GB   31 | 0   15-Apr-17 16:00   6
Мимик / Мимикрия / Mimic / Jang-san-beom (2017) HDRip 720p | L1
 2.23 GB   5 | 0   12-Jan-18 10:30   4
Присяжная / The Juror (1996) HDTVRip 720p | D, P, A
 4.58 GB   2 | 1   20-Sep-16 22:01   4
В глубине леса / In fondo al bosco (2015) HDTVRip 1080p
 6.17 GB   3 | 1   02-Jun-16 18:59   3


   
Current time is: 19-Dec 18:21 :: All times are UTC + 3