Информация о фильме
Название: Опасные мысли
Оригинальное название: Dangerous minds
Год выпуска: 1995
Жанр: драма, криминал, триллер, экранизация
Выпущено: США, Hollywood Pictures, Don Simpson/Jerry Bruckheimer Films
Продолжительность: 01:38:43
Перевод: Профессиональный двухголосый, авторский
Режиссер: Джон Н. Смит
В ролях: Мишель Пфайффер, Джордж Дзундза, Бруклин Харрис, Реноли Сантьяго, Уэйд Домингес, Кортни Б. Вэнс, Робин Бартлетт, Беатрис Уинд, Джон Невилл, Лоррейн Туссен-О фильме:
По книге Луэнны Джонсон "Моя команда домашнюю работу не делает" ("My posse don t do homework"). Покинув элитные части морской пехоты, Лу - Энн Джонсон выбирает для себя странную профессию: железная леди становится учительницей английского языка в колледже. Но навыки армейской службы сразу же пригодились ей на новом поприще.Ведь класс, в который попала Лу - Энн, мало чем отличался от поля боя, а ученики оказались очень уж похожи на головорезов. Учительнице специального назначения не оставалось ничего другого, как перейти в решительное наступление.-
Файл
Качество: WEB-DLRip 720p
Видео: MPEG-4 AVC, 4543 Кбит/сек, 1280x692, 23,976 кадра/сек
Аудио 1: Русский: AC3, 6 ch, 448 Кбит/сек |Профессиональный двухголосый, Первый канал|
Аудио 2: Русский: AC3, 6 ch, 448 Кбит/сек |Авторский одноголосый, А. Гаврилов|
Аудио 3: Русский: AC3, 6 ch, 384 Кбит/сек |Авторский одноголосый, Ю. Живов|
Аудио 4: Русский: AC3, 2 ch, 128 Кбит/сек |Профессиональный двухголосый, iTunes|
Аудио 5: Украинский: AC3, 2 ch, 128 Кбит/сек |Профессиональный двухголосый, ICTV|
Аудио 6: Английский: AC3, 6 ch, 640 Кбит/сек |Оригинал|
Субтитры: Русские, английские, финские
Навигация по главам: есть-Релиз от: mzma

MediaInfo

x264 [info]: frame I:898 Avg QP:13.71 size: 127346
x264 [info]: frame P:31262 Avg QP:17.06 size: 49488
x264 [info]: frame B:109847 Avg QP:18.93 size: 15631
----------------------------------------------------------------------
Общее
Уникальный идентификатор : 230157149530578711198861304391224247321 (0xAD26A7952602E261B80B4CBFA21FC419)
Полное имя : Опасные.мысли.1995.WEB-DLRip.720p.KORSAR.mkv
Формат : Matroska
Версия формата : Version 2
Размер файла : 4,64 Гбайт
Продолжительность : 1 ч. 38 м.
Общий поток : 6715 Кбит/сек
Дата кодирования : UTC 2017-09-12 20:33:03
Программа кодирования : mkvmerge v5.8.0 ('No Sleep / Pillow') built on Sep 2 2012 15:37:04
Библиотека кодирования : libebml v1.2.3 + libmatroska v1.3.0
Видео
Идентификатор : 1
Формат : AVC
Формат/Информация : Advanced Video Codec
Профиль формата : High@L4.1
Параметр CABAC формата : Да
Параметр ReFrames формата : 9 кадров
Идентификатор кодека : V_MPEG4/ISO/AVC
Продолжительность : 1 ч. 38 м.
Битрейт : 4543 Кбит/сек
Ширина : 1280 пикселей
Высота : 692 пикселя
Соотношение сторон : 1,85:1
Режим частоты кадров : Постоянный
Частота кадров : 23,976 (24000/1001) кадра/сек
Цветовое пространство : YUV
Субдискретизация насыщенности : 4:2:0
Битовая глубина : 8 бит
Тип развёртки : Прогрессивная
Бит/(Пиксели*Кадры) : 0.214
Размер потока : 3,04 Гбайт (66%)
Заголовок : RIP | MZMA
Библиотека кодирования : x264 core 148 r2638 7599210
Настройки программы : cabac=1 / ref=9 / deblock=1:-2:-2 / analyse=0x3:0x113 / me=umh / subme=11 / psy=1 / psy_rd=1.00:0.00 / mixed_ref=1 / me_range=48 / chroma_me=1 / trellis=2 / 8x8dct=1 / cqm=0 / deadzone=21,11 / fast_pskip=0 / chroma_qp_offset=-2 / threads=6 / lookahead_threads=1 / sliced_threads=0 / nr=0 / decimate=0 / interlaced=0 / bluray_compat=0 / constrained_intra=0 / bframes=16 / b_pyramid=2 / b_adapt=2 / b_bias=0 / direct=3 / weightb=1 / open_gop=0 / weightp=2 / keyint=250 / keyint_min=23 / scenecut=40 / intra_refresh=0 / rc_lookahead=60 / rc=2pass / mbtree=1 / bitrate=4543 / ratetol=1.0 / qcomp=0.60 / qpmin=0 / qpmax=69 / qpstep=4 / cplxblur=20.0 / qblur=0.5 / vbv_maxrate=50000 / vbv_bufsize=62500 / nal_hrd=none / filler=0 / ip_ratio=1.40 / aq=1:1.00
Язык : English
Default : Да
Forced : Нет
Цветовой диапазон : Limited
Основные цвета : BT.709
Характеристики трансфера : BT.709
Коэффициенты матрицы : BT.709
Аудио #1
Идентификатор : 2
Формат : AC-3
Формат/Информация : Audio Coding 3
Параметр Endianness формата : Big
Идентификатор кодека : A_AC3
Продолжительность : 1 ч. 38 м.
Вид битрейта : Постоянный
Битрейт : 448 Кбит/сек
Каналы : 6 каналов
Расположение каналов : Front: L C R, Side: L R, LFE
Частота : 48,0 КГц
Частота кадров : 31,250 кадров/сек (1536 spf)
Битовая глубина : 16 бит
Метод сжатия : С потерями
Размер потока : 317 Мбайт (7%)
Заголовок : DVO | Первый канал
Язык : Russian
Default : Да
Forced : Нет
Аудио #2
Идентификатор : 3
Формат : AC-3
Формат/Информация : Audio Coding 3
Параметр Endianness формата : Big
Идентификатор кодека : A_AC3
Продолжительность : 1 ч. 38 м.
Вид битрейта : Постоянный
Битрейт : 448 Кбит/сек
Каналы : 6 каналов
Расположение каналов : Front: L C R, Side: L R, LFE
Частота : 48,0 КГц
Частота кадров : 31,250 кадров/сек (1536 spf)
Битовая глубина : 16 бит
Метод сжатия : С потерями
Размер потока : 317 Мбайт (7%)
Заголовок : AVO | А. Гаврилов
Язык : Russian
Default : Нет
Forced : Нет
Аудио #3
Идентификатор : 4
Формат : AC-3
Формат/Информация : Audio Coding 3
Параметр Endianness формата : Big
Идентификатор кодека : A_AC3
Продолжительность : 1 ч. 38 м.
Вид битрейта : Постоянный
Битрейт : 384 Кбит/сек
Каналы : 6 каналов
Расположение каналов : Front: L C R, Side: L R, LFE
Частота : 48,0 КГц
Частота кадров : 31,250 кадров/сек (1536 spf)
Битовая глубина : 16 бит
Метод сжатия : С потерями
Размер потока : 271 Мбайт (6%)
Заголовок : AVO | Ю. Живов
Язык : Russian
Default : Нет
Forced : Нет
Аудио #4
Идентификатор : 5
Формат : AC-3
Формат/Информация : Audio Coding 3
Параметр Endianness формата : Big
Идентификатор кодека : A_AC3
Продолжительность : 1 ч. 38 м.
Вид битрейта : Постоянный
Битрейт : 128 Кбит/сек
Каналы : 2 канала
Расположение каналов : Front: L R
Частота : 48,0 КГц
Частота кадров : 31,250 кадров/сек (1536 spf)
Битовая глубина : 16 бит
Метод сжатия : С потерями
Размер потока : 90,5 Мбайт (2%)
Заголовок : DVO
Язык : Russian
Default : Нет
Forced : Нет
Аудио #5
Идентификатор : 6
Формат : AC-3
Формат/Информация : Audio Coding 3
Параметр Endianness формата : Big
Идентификатор кодека : A_AC3
Продолжительность : 1 ч. 38 м.
Вид битрейта : Постоянный
Битрейт : 128 Кбит/сек
Каналы : 2 канала
Расположение каналов : Front: L R
Частота : 48,0 КГц
Частота кадров : 31,250 кадров/сек (1536 spf)
Битовая глубина : 16 бит
Метод сжатия : С потерями
Размер потока : 90,5 Мбайт (2%)
Заголовок : MVO | ICTV
Язык : Ukrainian
Default : Нет
Forced : Нет
Аудио #6
Идентификатор : 7
Формат : E-AC-3
Формат/Информация : Enhanced Audio Coding 3
Параметр Endianness формата : Big
Идентификатор кодека : A_EAC3
Продолжительность : 1 ч. 38 м.
Вид битрейта : Постоянный
Битрейт : 640 Кбит/сек
Каналы : 6 каналов
Расположение каналов : Front: L C R, Side: L R, LFE
Частота : 48,0 КГц
Частота кадров : 187,500 кадров/сек (256 spf)
Метод сжатия : С потерями
Размер потока : 452 Мбайт (10%)
Заголовок : Original
Язык : English
Default : Нет
Forced : Нет
Текст #1
Идентификатор : 8
Формат : UTF-8
Идентификатор кодека : S_TEXT/UTF8
Идентификатор кодека/Информация : UTF-8 Plain Text
Язык : Russian
Default : Нет
Forced : Нет
Текст #2
Идентификатор : 9
Формат : UTF-8
Идентификатор кодека : S_TEXT/UTF8
Идентификатор кодека/Информация : UTF-8 Plain Text
Язык : English
Default : Нет
Forced : Нет
Текст #3
Идентификатор : 10
Формат : UTF-8
Идентификатор кодека : S_TEXT/UTF8
Идентификатор кодека/Информация : UTF-8 Plain Text
Язык : Finnish
Default : Нет
Forced : Нет
Меню
00:00:00.000 : en:Opening Credits
00:07:31.475 : en:First Day Of Class
00:13:36.589 : en:New Stategy
00:31:15.272 : en:Reading Poetry
00:41:05.779 : en:Emilio
00:46:41.447 : en:Choices
00:51:51.882 : en:Poetry And Its Rewards
00:53:45.079 : en:Dylan-Dylan Contest
00:59:35.971 : en:At The Flowering Peach
01:12:24.030 : en:LouAnne's Past
01:21:13.684 : en:Remember To Knock
01:24:57.116 : en:Choosing To Leave
01:30:20.063 : en:Change Of Heart
01:34:24.516 : en:End Credits

Сравнение с исходником

http://screenshotcomparison.com/comparison/117259/

Для скачивания файла отключите блокировку рекламы и перезагрузите страницу.

disable adblock Как отключить блокировку рекламы?

Скачать по магнет ссылке 4,64 GB 

Войти с помощью:



   
Текущее время: 16-Авг 08:33 :: Часовой пояс: UTC ± 0