Малыш на драйве / Baby Driver- Год выпуска: 2017
Страна: Великобритания, США / Working Title Films
Жанр: боевик, триллер, криминал, музыка
Продолжительность: 01:52:39
Перевод: Профессиональный (дублированный) iTunes
Субтитры: русские, английские
Оригинальная аудиодорожка: английский-Режиссер: Эдгар Райт / Edgar Wright-В ролях: Энсел Элгорт, Кевин Спейси, Джейми Фокс, Джон Бернтал, Лили Джеймс, Джон Хэмм, Эйса Гонсалес, Фли, Лэнни Джун, Мика Ховард, Морган Браун, Морс Диггз, С.Дж. Джонс, Скай Феррейра.-Описание: Молодой парень по прозвищу Малыш обожает стильную музыку, быструю езду и адреналин в крови. Вся его жизнь — это сплошные погони и перестрелки, ведь он работает водителем, который помогает бандитам скрыться с места преступления. Однажды он по-настоящему влюбляется и решает выйти из игры, но сначала ему предстоит выполнить еще одно задание, которое вполне может оказаться последним в его жизни.-Рейтинг
kinopoisk.ru 7.286 (44 068)
imdb.com 8.20 (98 980)
-Качество видео: BDRip (исходник: BD-Remux / 1080p)
Формат видео: AVI | Sample
Видео: 720x304 (2.37:1), 23.976 fps, XviD build 73 ~1857 kbps avg, 0.35 bit/pixel
Аудио 1: 48 kHz, AC3 Dolby Digital, 3/2 (L,C,R,l,r) + LFE ch, ~384.00 kbps avg | RUS
Аудио 2: 48 kHz, AC3 Dolby Digital, 3/2 (L,C,R,l,r) + LFE ch, ~448.00 kbps avg | ENG

Инфо

Формат : AVI
Формат/Информация : Audio Video Interleave
Профиль формата : OpenDML
Размер файла : 2,13 Гбайт
Продолжительность : 1 ч. 52 м.
Общий поток : 2707 Кбит/сек
Название фильма : Малыш на драйве / Baby Driver (2017)
Программа кодирования : VirtualDubMod 1.5.10.2 (build 2540/release)
Библиотека кодирования : VirtualDubMod build 2540/release
Примечание : BDRip by Seven
Видео
Идентификатор : 0
Формат : MPEG-4 Visual
Профиль формата : Advanced Simple@L5
Настройки формата : BVOP1 / Custom Matrix
Параметр BVOP формата : 1
Параметр QPel формата : Нет
Параметр GMC формата : Без точки перехода
Параметр матрицы формата : Выборочная
Идентификатор кодека : XVID
Идентификатор кодека/Подсказка : XviD
Продолжительность : 1 ч. 52 м.
Битрейт : 1857 Кбит/сек
Ширина : 720 пикселей
Высота : 304 пикселя
Соотношение сторон : 2,35:1
Частота кадров : 23,976 (24000/1001) кадра/сек
Цветовое пространство : YUV
Субдискретизация насыщенности : 4:2:0
Битовая глубина : 8 бит
Тип развёртки : Прогрессивная
Метод сжатия : С потерями
Бит/(Пиксели*Кадры) : 0.354
Размер потока : 1,46 Гбайт (69%)
Библиотека кодирования : XviD 73
Аудио #1
Идентификатор : 1
Формат : AC-3
Формат/Информация : Audio Coding 3
Параметр Endianness формата : Big
Идентификатор кодека : 2000
Продолжительность : 1 ч. 52 м.
Вид битрейта : Постоянный
Битрейт : 384 Кбит/сек
Каналы : 6 каналов
Расположение каналов : Front: L C R, Side: L R, LFE
Частота : 48,0 КГц
Частота кадров : 31,250 кадров/сек (1536 SPF)
Битовая глубина : 16 бит
Метод сжатия : С потерями
Размер потока : 309 Мбайт (14%)
Выравнивание : Разделение по промежуткам
Продолжительность промежутка : 42 мс. (1,00 видеокадр)
Время предзагрузки промежутка : 500 мс.
Аудио #2
Идентификатор : 2
Формат : AC-3
Формат/Информация : Audio Coding 3
Параметр Endianness формата : Big
Идентификатор кодека : 2000
Продолжительность : 1 ч. 52 м.
Вид битрейта : Постоянный
Битрейт : 448 Кбит/сек
Каналы : 6 каналов
Расположение каналов : Front: L C R, Side: L R, LFE
Частота : 48,0 КГц
Частота кадров : 31,250 кадров/сек (1536 SPF)
Битовая глубина : 16 бит
Метод сжатия : С потерями
Размер потока : 361 Мбайт (17%)
Выравнивание : Разделение по промежуткам
Продолжительность промежутка : 42 мс. (1,00 видеокадр)
Время предзагрузки промежутка : 500 мс.

Скриншоты

Для скачивания файла отключите блокировку рекламы и перезагрузите страницу.

disable adblock Как отключить блокировку рекламы?

Скачать по магнет ссылке 2,13 GB 

Войти с помощью:

Похожие раздачи

Внимание! Контент 18+ если вы младше данного возраста, НЕ переходите по ссылке!!!


   
Текущее время: 14-Авг 22:55 :: Часовой пояс: UTC ± 0