Проклятие Аннабель: Зарождение зла / Annabelle: Creation«Новый ужас вселенной 'Заклятия'»- Страна: США
Жанр: ужасы, триллер, детектив
Год выпуска: 2017
Продолжительность: 01:49:42
Перевод: Профессиональный (дублированный) (iTunes)
Оригинальная аудиодорожка: нет
Субтитры: русские (форс.)
Навигация по главам: есть
Режиссер: Дэвид Ф. Сандберг / David F. Sandberg
В ролях: Энтони ЛаПалья (Samuel Mullins), Самара Ли (Bee), Миранда Отто (Esther Mullins), Брэд Гринквист (Victor Palmeri), Лулу Уилсон (Linda), Талита Бейтман (Janice), Стефани Сигман (Sister Charlotte), Марк Брэмхолл (Father Massey), Грэйс Фултон (Carol), Филиппа Култхард (Nancy), Тайлер Бак (Kate), Lou Lou Safran (Tierney)
Описание: Через несколько лет после трагической гибели маленькой дочери кукольник и его жена приглашают в свой дом монахиню и нескольких девочек из приюта, вскоре становящихся мишенью для одержимого создания кукольника - Аннабель.- -Качество: BDRip-AVC (исходник - BDRemux|Annabelle.Creation.2017.1080p.BluRay.REMUX.AVC.DTS-HD.MA.TrueHD.7.1.Atmos-FGT)
Формат видео: MKV
Видео: x264, 1152x480 (2.40:1) 23,976 fps, ~1481 kbps, 0.112 bit/pixel
Аудио: 48 kHz, AC3 Dolby Digital, 5.1 (Front: L C R, Side: L R, LFE) ch, ~384 kbps
Формат субтитров: softsub (SRT)-

MediaInfo | x264 log

Format : Matroska
Format version : Version 4 / Version 2
File size : 1.46 GiB
Duration : 1 h 49 min
Overall bit rate : 1 903 kb/s
Movie name : Проклятие Аннабель: Зарождение зла / Annabelle: Creation (2017) :: AFM ::
Encoded date : UTC 2017-10-20 19:33:42
Writing application : mkvmerge v8.3.0 ('Over the Horizon') 32bit
Writing library : libebml v1.3.1 + libmatroska v1.4.2
Video
ID : 1
Format : AVC
Format/Info : Advanced Video Codec
Format profile : High@L4.1
Format settings, CABAC : Yes
Format settings, ReFrames : 11 frames
Codec ID : V_MPEG4/ISO/AVC
Duration : 1 h 49 min
Bit rate : 1 481 kb/s
Width : 1 152 pixels
Height : 480 pixels
Display aspect ratio : 2.40:1
Frame rate mode : Constant
Frame rate : 23.976 (24000/1001) FPS
Color space : YUV
Chroma subsampling : 4:2:0
Bit depth : 8 bits
Scan type : Progressive
Bits/(Pixel*Frame) : 0.112
Stream size : 1.14 GiB (78%)
Title : BDRip by AFM
Writing library : x264 core 152 r2851+45 9658d1a 7mod [8-bit@all X86_64]
Encoding settings : cabac=1 / ref=11 / deblock=1:-3:-2 / analyse=0x3:0x133 / me=umh / subme=10 / psy=1 / fade_compensate=0.00 / psy_rd=1.00:0.00 / mixed_ref=1 / me_range=32 / chroma_me=0 / trellis=2 / 8x8dct=1 / cqm=0 / deadzone=21,11 / fast_pskip=0 / chroma_qp_offset=-2 / threads=6 / lookahead_threads=1 / sliced_threads=0 / nr=0 / decimate=1 / interlaced=0 / bluray_compat=0 / constrained_intra=0 / fgo=0 / bframes=15 / b_pyramid=2 / b_adapt=2 / b_bias=0 / direct=1 / weightb=1 / open_gop=0 / weightp=2 / keyint=240 / keyint_min=23 / scenecut=40 / intra_refresh=0 / rc_lookahead=90 / rc=crf / mbtree=0 / crf=18.7000 / qcomp=0.65 / qpmin=0:0:0 / qpmax=69:69:69 / qpstep=4 / vbv_maxrate=50000 / vbv_bufsize=62500 / crf_max=0.0 / nal_hrd=none / filler=0 / ip_ratio=1.35 / pb_ratio=1.25 / aq=3:0.90 / aq-sensitivity=10.00 / aq-factor=1.00:1.00:1.00 / aq2=0 / aq3=0 / zones=152410,157830,q=30
Language : English
Default : Yes
Forced : No
Audio
ID : 2
Format : AC-3
Format/Info : Audio Coding 3
Mode extension : CM (complete main)
Format settings, Endianness : Big
Codec ID : A_AC3
Duration : 1 h 49 min
Bit rate mode : Constant
Bit rate : 384 kb/s
Channel(s) : 6 channels
Channel positions : Front: L C R, Side: L R, LFE
Sampling rate : 48.0 kHz
Frame rate : 31.250 FPS (1536 spf)
Compression mode : Lossy
Stream size : 301 MiB (20%)
Title : Dub, AC3 5.1 ~384 kbps
Language : Russian
Default : Yes
Forced : No
Text
ID : 3
Format : UTF-8
Codec ID : S_TEXT/UTF8
Codec ID/Info : UTF-8 Plain Text
Title : forced
Language : Russian
Default : Yes
Forced : No
Menu
00:00:00.000 : en:Chapter 01
00:11:25.351 : en:Chapter 02
00:20:35.067 : en:Chapter 03
00:30:33.289 : en:Chapter 04
00:42:03.604 : en:Chapter 05
00:52:39.239 : en:Chapter 06
01:03:12.497 : en:Chapter 07
01:13:14.681 : en:Chapter 08
01:23:55.613 : en:Chapter 09
01:33:19.302 : en:Chapter 10
01:43:27.618 : en:Chapter 11

x264

x264 [info]: frame I:1227 Avg QP:14.62 size: 50834
x264 [info]: frame P:26478 Avg QP:15.82 size: 18585
x264 [info]: frame B:130125 Avg QP:18.44 size: 5334
x264 [info]: consecutive B-frames: 1.3% 0.9% 2.7% 7.3% 15.7% 35.7% 10.9% 3.7% 5.6% 3.9% 4.1% 2.5% 2.3% 1.8% 1.0% 0.6%
x264 [info]: mb I I16..4: 10.4% 70.4% 19.2%
x264 [info]: mb P I16..4: 2.1% 9.3% 1.4% P16..4: 41.5% 20.2% 15.4% 0.4% 0.1% skip: 9.6%
x264 [info]: mb B I16..4: 0.1% 0.5% 0.1% B16..8: 35.9% 7.9% 1.7% direct: 3.5% skip:50.3% L0:42.3% L1:48.9% BI: 8.9%
x264 [info]: 8x8 transform intra:73.7% inter:62.7%
x264 [info]: coded y,uvDC,uvAC intra: 76.3% 63.8% 38.6% inter: 14.0% 7.9% 0.5%
x264 [info]: i16 v,h,dc,p: 53% 11% 10% 25%
x264 [info]: i8 v,h,dc,ddl,ddr,vr,hd,vl,hu: 12% 7% 10% 10% 13% 13% 11% 12% 12%
x264 [info]: i4 v,h,dc,ddl,ddr,vr,hd,vl,hu: 10% 5% 6% 12% 16% 15% 12% 12% 12%
x264 [info]: i8c dc,h,v,p: 32% 33% 22% 13%
x264 [info]: Weighted P-Frames: Y:96.5% UV:3.4%
x264 [info]: ref P L0: 51.8% 7.2% 17.3% 6.4% 5.0% 3.6% 3.1% 1.6% 1.4% 1.2% 1.2% 0.1% 0.0%
x264 [info]: ref B L0: 73.8% 11.7% 5.9% 2.7% 1.9% 1.5% 1.2% 0.7% 0.4% 0.2%
x264 [info]: ref B L1: 92.9% 7.1%
x264 [info]: kb/s:1517.41

Скриншоты

с названием

To download the file disable ad blocking, and reload the page.

disable adblock How to disable ad blocking?

Download by magnet link 1.46 GB Download Torrent

Login using:

Загрузка...

Similar topics



   
Current time is: 15-Dec 16:18 :: All times are UTC + 3