Мумия / The Mummy
Страна: США
Жанр: фэнтези, боевик, триллер
Год выпуска: 2017
Продолжительность: 01:50:05
Перевод: Профессиональный (дублированный)
Субтитры: русские, английские
Оригинальная аудиодорожка: английский
Режиссер: Алекс Куртцман / Alex Kurtzman
В ролях: Том Круз, Рассел Кроу, Аннабелль Уоллис, София Бутелла, Джейк Джонсон, Кортни Б. Вэнс, Марван Кензари, Саймон Атертон, Стивен Томпсон, Джеймс Арама, Мэтт Уилкас, Зом Капила
Описание: Посреди безжалостной пустыни в величественном саркофаге погребена дочь египетского фараона, но настанет день, и она явится в наш мир вернуть себе то, что принадлежит ей по праву. Отныне миром правят боги и монстры.
Доп. информация: Локализованный видеоряд. Запись с онлайн-кинотеатра. Звук с лицензии
Различия BD и WEBRip - разное наполнение кадра - 16:9 (1.78:1) -> http://screenshotcomparison.com/comparison.php?id=120127
Фильмы в Fullscreen (4:3) и Open Matte (16:9) форматах
Сэмпл: http://multi-up.com/1172665
Качество видео: WEBRip-AVC [The Mummy (2017) WEB-DL 1080p -BLUEBIRD.mkv]
Формат видео: MKV
Видео: MPEG-4 AVC/H.264 / 2087 kbps / 1024x432 / 23.976 fps
Аудио: DUB (Rus) / AC3 / 6 ch / 384 kbps / 48 kHz
Аудио 2: Original (Eng) / AC3 / 6 ch / 384 kbps / 48 kHz
Формат субтитров: softsub (SRT)
Доп. информация о субтитрах: русские (full), английские (2x full)
#Сохранены оригинальные чаптеры как на Blu-ray

Log

x264 [info]: frame I:1375 Avg QP:12.89 size: 69797
x264 [info]: frame P:41699 Avg QP:15.89 size: 20598
x264 [info]: frame B:115302 Avg QP:18.64 size: 6651

MediaInfo

General
Unique ID : 210427231994050884934395011501870819999 (0x9E4ECF8B6C7512FEABC5F5ABB48C2A9F)
Complete name : J:\Torrents\Готовые релизы\Мумия (2017) WEBRip-AVC [RUS Transfer].mkv
Format : Matroska
Format version : Version 2
File size : 2.20 GiB
Duration : 1 h 50 min
Overall bit rate : 2 856 kb/s
Movie name : Мумия / The Mummy (2017) [RUS Transfer]
Encoded date : UTC 2017-10-02 05:54:22
Writing application : mkvmerge v5.5.0 ('Healer') built on Apr 24 2012 23:47:03
Writing library : libebml v1.2.3 + libmatroska v1.3.0
Cover : Yes
Attachments : Cover.jpg
Video
ID : 1
Format : AVC
Format/Info : Advanced Video Codec
Format profile : High@L3.1
Format settings, CABAC : Yes
Format settings, ReFrames : 8 frames
Codec ID : V_MPEG4/ISO/AVC
Duration : 1 h 50 min
Bit rate : 2 087 kb/s
Width : 1 024 pixels
Height : 432 pixels
Display aspect ratio : 2.40:1
Frame rate mode : Constant
Frame rate : 23.976 (24000/1001) FPS
Color space : YUV
Chroma subsampling : 4:2:0
Bit depth : 8 bits
Scan type : Progressive
Bits/(Pixel*Frame) : 0.197
Stream size : 1.56 GiB (71%)
Title : WEBRip (AVC) / MPEG-4 AVC/H.264 / 2087 kbps / 1024x432 / 23.976 fps
Writing library : x264 core 146 r2538 121396c
Encoding settings : cabac=1 / ref=8 / deblock=1:0:0 / analyse=0x3:0x113 / me=umh / subme=10 / psy=1 / psy_rd=1.00:0.00 / mixed_ref=1 / me_range=32 / chroma_me=1 / trellis=2 / 8x8dct=1 / cqm=0 / deadzone=21,11 / fast_pskip=0 / chroma_qp_offset=-2 / threads=6 / lookahead_threads=1 / sliced_threads=0 / nr=0 / decimate=1 / interlaced=0 / bluray_compat=0 / constrained_intra=0 / bframes=9 / b_pyramid=2 / b_adapt=2 / b_bias=0 / direct=3 / weightb=1 / open_gop=0 / weightp=2 / keyint=250 / keyint_min=23 / scenecut=40 / intra_refresh=0 / rc_lookahead=50 / rc=2pass / mbtree=1 / bitrate=2087 / ratetol=1.0 / qcomp=0.60 / qpmin=0 / qpmax=69 / qpstep=4 / cplxblur=20.0 / qblur=0.5 / vbv_maxrate=14000 / vbv_bufsize=14000 / nal_hrd=none / filler=0 / ip_ratio=1.40 / aq=1:1.00
Language : English
Default : Yes
Forced : Yes
Audio #1
ID : 2
Format : AC-3
Format/Info : Audio Coding 3
Mode extension : CM (complete main)
Format settings, Endianness : Big
Codec ID : A_AC3
Duration : 1 h 50 min
Bit rate mode : Constant
Bit rate : 384 kb/s
Channel(s) : 6 channels
Channel positions : Front: L C R, Side: L R, LFE
Sampling rate : 48.0 kHz
Frame rate : 31.250 FPS (1536 spf)
Bit depth : 16 bits
Compression mode : Lossy
Stream size : 302 MiB (13%)
Title : DUB (Rus) / AC3 / 6 ch / 384 kbps / 48 kHz
Language : Russian
Default : Yes
Forced : Yes
Audio #2
ID : 3
Format : AC-3
Format/Info : Audio Coding 3
Mode extension : CM (complete main)
Format settings, Endianness : Big
Codec ID : A_AC3
Duration : 1 h 50 min
Bit rate mode : Constant
Bit rate : 384 kb/s
Channel(s) : 6 channels
Channel positions : Front: L C R, Side: L R, LFE
Sampling rate : 48.0 kHz
Frame rate : 31.250 FPS (1536 spf)
Bit depth : 16 bits
Compression mode : Lossy
Stream size : 302 MiB (13%)
Title : Original (Eng) / AC3 / 6 ch / 384 kbps / 48 kHz
Language : English
Default : No
Forced : No
Text #1
ID : 4
Format : UTF-8
Codec ID : S_TEXT/UTF8
Codec ID/Info : UTF-8 Plain Text
Title : Full (Rus) / S_TEXT/UTF8
Language : Russian
Default : No
Forced : No
Text #2
ID : 5
Format : UTF-8
Codec ID : S_TEXT/UTF8
Codec ID/Info : UTF-8 Plain Text
Title : Full (Eng) / S_TEXT/UTF8
Language : English
Default : No
Forced : No
Text #3
ID : 6
Format : UTF-8
Codec ID : S_TEXT/UTF8
Codec ID/Info : UTF-8 Plain Text
Title : Full [SDH] (Eng) / S_TEXT/UTF8
Language : English
Default : No
Forced : No
Menu
00:00:00.000 : en:Chapter 1
00:08:18.707 : en:Chapter 2
00:13:18.923 : en:Chapter 3
00:19:31.462 : en:Chapter 4
00:24:40.145 : en:Chapter 5
00:28:54.107 : en:Chapter 6
00:35:41.389 : en:Chapter 7
00:39:36.040 : en:Chapter 8
00:47:00.067 : en:Chapter 9
00:50:57.638 : en:Chapter 10
00:56:49.740 : en:Chapter 11
01:00:43.849 : en:Chapter 12
01:08:58.009 : en:Chapter 13
01:16:03.851 : en:Chapter 14
01:19:38.440 : en:Chapter 15
01:23:16.408 : en:Chapter 16
01:26:26.848 : en:Chapter 17
01:33:34.943 : en:Chapter 18
01:37:02.984 : en:Chapter 19
01:39:47.982 : en:Chapter 20

Скриншот c названием фильма

Скриншоты

To download the file disable ad blocking, and reload the page.

disable adblock How to disable ad blocking?

Download by magnet link 2.2 GB Download Torrent

Login using:

Similar topics



   
Current time is: 15-Oct 14:36 :: All times are UTC ± 0