S.F.X. / Rainbirds
Жанр: Trance, Goa Trance, Ambient
Носитель: CD
Страна-производитель диска (релиза): Germany
Год издания: 1995
Издатель (лейбл): Music & Sound
Номер по каталогу: 0006852MAS
Аудиокодек: FLAC (*.flac)
Тип рипа: tracks+.cue
Битрейт аудио: lossless
Источник (релизер): другой трекер
Наличие сканов в содержимом раздачи: нет
Треклист:
01. Another World
02. Noise on People
03. Una Bella Musica
04. Communication
05. You Forgot to Pray
06. Voice of Peace
07. Eye of the Dreamer
08. Fine
09. Oxygene
10. No More War, No More Justice
11. Shabale

Лог создания рипа

Exact Audio Copy V0.99 prebeta 5 from 4. May 2009
EAC extraction logfile from 20. September 2009, 14:05
S.F.X. / Rainbirds
Used drive : HL-DT-STDVD-RAM GSA-H20L Adapter: 2 ID: 0
Read mode : Secure
Utilize accurate stream : Yes
Defeat audio cache : Yes
Make use of C2 pointers : No
Read offset correction : 102
Overread into Lead-In and Lead-Out : No
Fill up missing offset samples with silence : Yes
Delete leading and trailing silent blocks : No
Null samples used in CRC calculations : Yes
Used interface : Installed external ASPI interface
Gap handling : Appended to previous track
Used output format : User Defined Encoder
Selected bitrate : 192 kBit/s
Quality : High
Add ID3 tag : No
Command line compressor : C:\Programme\Exact Audio Copy\flac.exe.
Additional command line options : -8 -A tukey(0.25) -A gauss(0.1875) -b 4096 -V -T "artist=%a" -T "title=%t" -T "album=%g" -T "date=%y" -T "tracknumber=%n" -T "genre=%m" %s
TOC of the extracted CD
Track | Start | Length | Start sector | End sector
---------------------------------------------------------
1 | 0:00.00 | 8:49.15 | 0 | 39689
2 | 8:49.15 | 7:04.55 | 39690 | 71544
3 | 15:53.70 | 8:08.07 | 71545 | 108151
4 | 24:02.02 | 6:59.63 | 108152 | 139639
5 | 31:01.65 | 5:35.07 | 139640 | 164771
6 | 36:36.72 | 7:35.68 | 164772 | 198964
7 | 44:12.65 | 7:25.42 | 198965 | 232381
8 | 51:38.32 | 2:01.38 | 232382 | 241494
9 | 53:39.70 | 8:05.12 | 241495 | 277881
10 | 61:45.07 | 6:36.65 | 277882 | 307646
11 | 68:21.72 | 8:05.53 | 307647 | 344074
Track 1
Filename D:\tmp\S.F.X. - Rainbirds\01-S.F.X._-_Another_world.wav
Pre-gap length 0:00:02.00
Peak level 100.0 %
Track quality 100.0 %
Test CRC A6088165
Copy CRC A6088165
Track not present in AccurateRip database
Copy OK
Track 2
Filename D:\tmp\S.F.X. - Rainbirds\02-S.F.X._-_Noise_on_people.wav
Peak level 100.0 %
Track quality 99.9 %
Test CRC 8458DEEB
Copy CRC 8458DEEB
Track not present in AccurateRip database
Copy OK
Track 3
Filename D:\tmp\S.F.X. - Rainbirds\03-S.F.X._-_Una_bella_musica.wav
Peak level 100.0 %
Track quality 100.0 %
Test CRC 10BEBD9B
Copy CRC 10BEBD9B
Track not present in AccurateRip database
Copy OK
Track 4
Filename D:\tmp\S.F.X. - Rainbirds\04-S.F.X._-_Communication.wav
Peak level 100.0 %
Track quality 100.0 %
Test CRC 625C7BC1
Copy CRC 625C7BC1
Track not present in AccurateRip database
Copy OK
Track 5
Filename D:\tmp\S.F.X. - Rainbirds\05-S.F.X._-_You_forgot_to_pray.wav
Peak level 98.8 %
Track quality 100.0 %
Test CRC D0A56CC7
Copy CRC D0A56CC7
Track not present in AccurateRip database
Copy OK
Track 6
Filename D:\tmp\S.F.X. - Rainbirds\06-S.F.X._-_Voice_of_peace.wav
Peak level 98.8 %
Track quality 99.9 %
Test CRC ACC95C87
Copy CRC ACC95C87
Track not present in AccurateRip database
Copy OK
Track 7
Filename D:\tmp\S.F.X. - Rainbirds\07-S.F.X._-_Eye_of_the_dreamer.wav
Peak level 98.8 %
Track quality 100.0 %
Test CRC 7C0B3B0C
Copy CRC 7C0B3B0C
Track not present in AccurateRip database
Copy OK
Track 8
Filename D:\tmp\S.F.X. - Rainbirds\08-S.F.X._-_Fine.wav
Peak level 70.3 %
Track quality 99.9 %
Test CRC BE8A5E20
Copy CRC BE8A5E20
Track not present in AccurateRip database
Copy OK
Track 9
Filename D:\tmp\S.F.X. - Rainbirds\09-S.F.X._-_Oxygene.wav
Peak level 98.8 %
Track quality 99.9 %
Test CRC FB1F0D13
Copy CRC FB1F0D13
Track not present in AccurateRip database
Copy OK
Track 10
Filename D:\tmp\S.F.X. - Rainbirds\10-S.F.X._-_No_more_war,_no_more_justice.wav
Peak level 98.8 %
Track quality 100.0 %
Test CRC 24B58003
Copy CRC 24B58003
Track not present in AccurateRip database
Copy OK
Track 11
Filename D:\tmp\S.F.X. - Rainbirds\11-S.F.X._-_Shabale.wav
Peak level 98.8 %
Track quality 100.0 %
Test CRC 49E4977C
Copy CRC 49E4977C
Track not present in AccurateRip database
Copy OK
None of the tracks are present in the AccurateRip database
No errors occurred
End of status report

Содержание индексной карты (.CUE)

REM GENRE Trance
REM DATE 1995
REM DISCID 8711EB0B
REM COMMENT "ExactAudioCopy v0.99pb5"
PERFORMER "S.F.X."
TITLE "Rainbirds"
FILE "01-S.F.X._-_Another_World.wav" WAVE
TRACK 01 AUDIO
TITLE "Another World"
PERFORMER "S.F.X."
INDEX 01 00:00:00
FILE "02-S.F.X._-_Noise_On_People.wav" WAVE
TRACK 02 AUDIO
TITLE "Noise On People"
PERFORMER "S.F.X."
INDEX 01 00:00:00
FILE "03-S.F.X._-_Una_Bella_Musica.wav" WAVE
TRACK 03 AUDIO
TITLE "Una Bella Musica"
PERFORMER "S.F.X."
INDEX 01 00:00:00
FILE "04-S.F.X._-_Communication.wav" WAVE
TRACK 04 AUDIO
TITLE "Communication"
PERFORMER "S.F.X."
INDEX 01 00:00:00
FILE "05-S.F.X._-_You_Forgot_To_Pray.wav" WAVE
TRACK 05 AUDIO
TITLE "You Forgot To Pray"
PERFORMER "S.F.X."
INDEX 01 00:00:00
FILE "06-S.F.X._-_Voice_Of_Peace.wav" WAVE
TRACK 06 AUDIO
TITLE "Voice Of Peace"
PERFORMER "S.F.X."
INDEX 01 00:00:00
FILE "07-S.F.X._-_Eye_Of_The_Dreamer.wav" WAVE
TRACK 07 AUDIO
TITLE "Eye Of The Dreamer"
PERFORMER "S.F.X."
INDEX 01 00:00:00
FILE "08-S.F.X._-_Fine.wav" WAVE
TRACK 08 AUDIO
TITLE "Fine"
PERFORMER "S.F.X."
INDEX 01 00:00:00
FILE "09-S.F.X._-_Oxygene.wav" WAVE
TRACK 09 AUDIO
TITLE "Oxygene"
PERFORMER "S.F.X."
INDEX 01 00:00:00
FILE "10-S.F.X._-_No_More_War_No_More_Justice.wav" WAVE
TRACK 10 AUDIO
TITLE "No More War, No More Justice"
PERFORMER "S.F.X."
INDEX 01 00:00:00
FILE "11-S.F.X._-_Shabale.wav" WAVE
TRACK 11 AUDIO
TITLE "Shabale"
PERFORMER "S.F.X."
INDEX 01 00:00:00

Лог проверки качества

AUDIOCHECKER v2.0 beta (build 457) - by Dester - opdester@freemail.hu
~~~~~~~~~~~~~~~~~~~~~~~~~~~~~~~~~~
-=== DO NOT EDIT THIS FILE! ===-
Path: ...\S.F.X._-_Rainbirds-1995-FLAC
01 -=- 01-S.F.X._-_Another_World.flac -=- CDDA (100%)
02 -=- 02-S.F.X._-_Noise_On_People.flac -=- CDDA (100%)
03 -=- 03-S.F.X._-_Una_Bella_Musica.flac -=- CDDA (100%)
04 -=- 04-S.F.X._-_Communication.flac -=- CDDA (100%)
05 -=- 05-S.F.X._-_You_Forgot_To_Pray.flac -=- CDDA (100%)
06 -=- 06-S.F.X._-_Voice_Of_Peace.flac -=- CDDA (100%)
07 -=- 07-S.F.X._-_Eye_Of_The_Dreamer.flac -=- CDDA (100%)
08 -=- 08-S.F.X._-_Fine.flac -=- CDDA (100%)
09 -=- 09-S.F.X._-_Oxygene.flac -=- CDDA (100%)
10 -=- 10-S.F.X._-_No_More_War_No_More_Justice.flac -=- CDDA (100%)
11 -=- 11-S.F.X._-_Shabale.flac -=- CDDA (100%)
Summary 100,00% CDDA
124354052
ПРОСЬБА НЕ ПОКИДАТЬ РАЗДАЧУ

To download the file disable ad blocking, and reload the page.

disable adblock How to disable ad blocking?

Download by magnet link 497 MB Download Torrent

Login using:

Similar topics

(Goa Trance) [WEB] GoaD - Galactic Aviator - 2016, FLAC (tracks), lossless
 566 MB   0 | 0   13-Jan-18 14:00   0
[Quote]
(Trance, Goa Trance, Ambient) [CD] S.F.X. - Rainbirds - 1995, FLAC (tracks+.cue), lossless
seed please?
[Quote]
195936
(Trance, Goa Trance, Ambient) [CD] S.F.X. - Rainbirds - 1995, FLAC (tracks+.cue), lossless
seed please?
there is seed, download


   
Current time is: 15-Oct 14:36 :: All times are UTC ± 0