Ree. K / Yammataikoku
Жанр: Goa Trance
Носитель: CD
Страна-производитель диска (релиза): Australia
Год издания: 1996
Издатель (лейбл): Psy-Harmonics
Номер по каталогу: PSY-026
Аудиокодек: FLAC (*.flac)
Тип рипа: tracks+.cue
Битрейт аудио: lossless
Источник (релизер): другой трекер
Наличие сканов в содержимом раздачи: нет
Треклист:
1 Hi Izuru Tokoro 8:14
2 Apollo 4:36
3 Atomic Energy Dragon 6:19
4 Emeraldas 6:12
5 Kage 6:59
6 Deva-King 8:20
7 SH-Maniac 8:33
8 Yamato 7:00
9 Apollo (Twisted Remix) 7:22
10 Hi Izuru Tokoro (Alien Commune Remix) Remix – Masa 8:32

Лог создания рипа

EAC extraction logfile from 29. October 2009, 17:01 for CD
Ree. K / Yammataikoku
Used drive : PIONEER DVD-RW DVR-111D Adapter: 1 ID: 0
Read mode : Secure with NO C2, accurate stream, disable cache
Read offset correction : 48
Overread into Lead-In and Lead-Out : No
Used output format : C:\Program Files\FLAC\flac.exe (User Defined Encoder)
128 kBit/s
Additional command line options : -V -8 -T "artist=%a" -T "title=%t" -T "album=%g" -T "date=%y" -T "tracknumber=%n" -T "genre=%m" %s
Other options :
Fill up missing offset samples with silence : Yes
Delete leading and trailing silent blocks : No
Installed external ASPI interface
Track 1
Filename F:\Rips\Ree. K - Yammataikoku\01 Ree. K - Hi Izuru Tokoro.wav
Pre-gap length 0:00:02.32
Peak level 89.1 %
Track quality 100.0 %
Test CRC EFAB75A3
Copy CRC EFAB75A3
Copy OK
Track 2
Filename F:\Rips\Ree. K - Yammataikoku\02 Ree. K - Apollo.wav
Peak level 89.1 %
Track quality 99.9 %
Test CRC CE31C9AB
Copy CRC CE31C9AB
Copy OK
Track 3
Filename F:\Rips\Ree. K - Yammataikoku\03 Ree. K - Atomic Energy Dragon.wav
Peak level 89.1 %
Track quality 100.0 %
Test CRC 39574D10
Copy CRC 39574D10
Copy OK
Track 4
Filename F:\Rips\Ree. K - Yammataikoku\04 Ree. K - Emeraldas.wav
Peak level 89.1 %
Track quality 100.0 %
Test CRC F5E7C7FA
Copy CRC F5E7C7FA
Copy OK
Track 5
Filename F:\Rips\Ree. K - Yammataikoku\05 Ree. K - Kage.wav
Peak level 89.1 %
Track quality 100.0 %
Test CRC 7E4AA733
Copy CRC 7E4AA733
Copy OK
Track 6
Filename F:\Rips\Ree. K - Yammataikoku\06 Ree. K - Deva-King.wav
Peak level 90.1 %
Track quality 100.0 %
Test CRC 2AFB3BE0
Copy CRC 2AFB3BE0
Copy OK
Track 7
Filename F:\Rips\Ree. K - Yammataikoku\07 Ree. K - Sh-Maniac.wav
Peak level 89.1 %
Track quality 100.0 %
Test CRC A15C0CC7
Copy CRC A15C0CC7
Copy OK
Track 8
Filename F:\Rips\Ree. K - Yammataikoku\08 Ree. K - Yamato.wav
Peak level 89.1 %
Track quality 99.9 %
Test CRC 153663E3
Copy CRC 153663E3
Copy OK
Track 9
Filename F:\Rips\Ree. K - Yammataikoku\09 Ree. K - Apollo (Twisted Remix).wav
Peak level 90.1 %
Track quality 100.0 %
Test CRC 1557FC33
Copy CRC 1557FC33
Copy OK
Track 10
Filename F:\Rips\Ree. K - Yammataikoku\10 Ree. K - Hi Izuru Tokoro (Alien Commune Remix by MASA).wav
Peak level 89.1 %
Track quality 100.0 %
Test CRC 3FCD99BB
Copy CRC 3FCD99BB
Copy OK
No errors occured
End of status report

Содержание индексной карты (.CUE)

REM DISCID 9410EB0A
REM COMMENT "ExactAudioCopy v0.95b3"
PERFORMER "Ree. K"
TITLE "Yammataikoku"
FILE "01-Ree._K_-_Hi_Izuru_Tokoro.wav" WAVE
TRACK 01 AUDIO
TITLE "Hi Izuru Tokoro"
PERFORMER "Ree. K"
PREGAP 00:00:32
INDEX 01 00:00:00
FILE "02-Ree._K_-_Apollo.wav" WAVE
TRACK 02 AUDIO
TITLE "Apollo"
PERFORMER "Ree. K"
INDEX 01 00:00:00
FILE "03-Ree._K_-_Atomic_Energy_Dragon.wav" WAVE
TRACK 03 AUDIO
TITLE "Atomic Energy Dragon"
PERFORMER "Ree. K"
INDEX 01 00:00:00
FILE "04-Ree._K_-_Emeraldas.wav" WAVE
TRACK 04 AUDIO
TITLE "Emeraldas"
PERFORMER "Ree. K"
INDEX 01 00:00:00
FILE "05-Ree._K_-_Kage.wav" WAVE
TRACK 05 AUDIO
TITLE "Kage"
PERFORMER "Ree. K"
INDEX 01 00:00:00
FILE "06-Ree._K_-_Deva-King.wav" WAVE
TRACK 06 AUDIO
TITLE "Deva-King"
PERFORMER "Ree. K"
INDEX 01 00:00:00
FILE "07-Ree._K_-_SH-Maniac.wav" WAVE
TRACK 07 AUDIO
TITLE "SH-Maniac"
PERFORMER "Ree. K"
INDEX 01 00:00:00
FILE "08-Ree._K_-_Yamato.wav" WAVE
TRACK 08 AUDIO
TITLE "Yamato"
PERFORMER "Ree. K"
INDEX 01 00:00:00
FILE "09-Ree._K_-_Apollo_(Twisted_Remix).wav" WAVE
TRACK 09 AUDIO
TITLE "Apollo (Twisted Remix)"
PERFORMER "Ree. K"
INDEX 01 00:00:00
FILE "10-Ree._K_-_Hi_Izuru_Tokoro_(Alien_Commune_Remix).wav" WAVE
TRACK 10 AUDIO
TITLE "Hi Izuru Tokoro (Alien Commune Remix)"
PERFORMER "Ree. K"
INDEX 01 00:00:00

Лог проверки качества

AUDIOCHECKER v2.0 beta (build 457) - by Dester - opdester@freemail.hu
~~~~~~~~~~~~~~~~~~~~~~~~~~~~~~~~~~
-=== DO NOT EDIT THIS FILE! ===-
Path: ...\Ree._K_-_Yammataikoku-1996-FLAC
01 -=- 01-Ree._K_-_Hi_Izuru_Tokoro.flac -=- CDDA (100%)
02 -=- 02-Ree._K_-_Apollo.flac -=- CDDA (100%)
03 -=- 03-Ree._K_-_Atomic_Energy_Dragon.flac -=- CDDA (99%)
04 -=- 04-Ree._K_-_Emeraldas.flac -=- CDDA (100%)
05 -=- 05-Ree._K_-_Kage.flac -=- CDDA (100%)
06 -=- 06-Ree._K_-_Deva-King.flac -=- CDDA (100%)
07 -=- 07-Ree._K_-_SH-Maniac.flac -=- CDDA (100%)
08 -=- 08-Ree._K_-_Yamato.flac -=- CDDA (99%)
09 -=- 09-Ree._K_-_Apollo_(Twisted_Remix).flac -=- CDDA (100%)
10 -=- 10-Ree._K_-_Hi_Izuru_Tokoro_(Alien_Commune_Remix).flac -=- CDDA (100%)
Summary 99,80% CDDA
100973172
ПРОСЬБА НЕ ПОКИДАТЬ РАЗДАЧУ

To download the file disable ad blocking, and reload the page.

disable adblock How to disable ad blocking?

Download by magnet link 502 MB Download Torrent

Login using:

Загрузка...

Similar topics

(Psytrance) Mandragora - Disc 2 - 2018, MP3, 320 kbps
 100 MB   0 | 0   15-Aug-18 11:20   28
(Psytrance) Rising Dust - Arba - 2018, MP3, 320 kbps
 166 MB   0 | 0   17-Jul-18 09:15   24


   
Current time is: 16-Dec 19:03 :: All times are UTC + 3