Razor's Edge / Exquisite Sin
Жанр: Goa Trance, Trance, Tribal, Acid,
Носитель: CD
Страна-производитель диска (релиза): UK
Год издания: 1996
Издатель (лейбл): Metropolitan Music
Номер по каталогу: MM001CD
Аудиокодек: FLAC (*.flac)
Тип рипа: image+.cue
Битрейт аудио: lossless
Источник (релизер): другой трекер
Наличие сканов в содержимом раздачи: нет
Треклист:
01. Razors Edge - Starburst (Anthem Mix) (8:28)
02. Razors Edge - Ff (Dark Dub) (9:49)
03. Razors Edge - Jazzy Ed (6:42)
04. Razors Edge - Tribal Sunrise (Acid Sunset Mix) (7:08)
05. Razors Edge - Sleeplees (Barrelbeat Original) (6:21)
06. Razors Edge - Engazi Flow (Dancefloor Nrg Mix) (8:39)
07. Razors Edge - Exquisite Sin (Disco Volantes Remix) (8:35)
08. Razors Edge - Peace In Our Time (6:49)
09. Razors Edge - The Zoo (Dancefloor Nrg Original) (7:25)
10. Razors Edge - The Freeze (7:00)

Лог создания рипа

Exact Audio Copy V0.99 prebeta 4 from 23. January 2008
EAC extraction logfile from 1. December 2010, 10:42
Razor's Edge / Exquisite Sin
Used drive : Optiarc DVD RW AD-5200A Adapter: 0 ID: 1
Read mode : Secure
Utilize accurate stream : Yes
Defeat audio cache : Yes
Make use of C2 pointers : No
Read offset correction : 48
Overread into Lead-In and Lead-Out : No
Fill up missing offset samples with silence : Yes
Delete leading and trailing silent blocks : No
Null samples used in CRC calculations : Yes
Used interface : Installed external ASPI interface
Used output format : User Defined Encoder
Selected bitrate : 128 kBit/s
Quality : High
Add ID3 tag : No
Command line compressor : C:\Program Files\FLAC\flac.exe
TOC of the extracted CD
Track | Start | Length | Start sector | End sector
---------------------------------------------------------
1 | 0:00.00 | 8:28.12 | 0 | 38111
2 | 8:28.12 | 9:49.23 | 38112 | 82309
3 | 18:17.35 | 6:42.50 | 82310 | 112509
4 | 25:00.10 | 7:08.60 | 112510 | 144669
5 | 32:08.70 | 6:21.45 | 144670 | 173289
6 | 38:30.40 | 8:39.05 | 173290 | 212219
7 | 47:09.45 | 8:35.40 | 212220 | 250884
8 | 55:45.10 | 6:49.30 | 250885 | 281589
9 | 62:34.40 | 7:25.00 | 281590 | 314964
10 | 69:59.40 | 7:00.37 | 314965 | 346501
Range status and errors
Selected range
Filename J:\music\goa\flac\!!!__VA___\000_temp\0_my\0\0_wav\Razor's Edge - Exquisite Sin\Razor's Edge - Exquisite Sin.wav
Peak level 98.8 %
Range quality 99.9 %
Test CRC EE99CDED
Copy CRC EE99CDED
Copy OK
No errors occurred
AccurateRip summary
Track 1 not present in database
Track 2 not present in database
Track 3 not present in database
Track 4 not present in database
Track 5 not present in database
Track 6 not present in database
Track 7 not present in database
Track 8 not present in database
Track 9 not present in database
Track 10 not present in database
None of the tracks are present in the AccurateRip database
End of status report

Содержание индексной карты (.CUE)

REM GENRE Trance
REM DATE 1995
REM DISCID 73120C0A
REM COMMENT "ExactAudioCopy v0.99pb4"
PERFORMER "Razor's Edge"
TITLE "Exquisite Sin"
FILE "Razor's Edge - Exquisite Sin.flac" WAVE
TRACK 01 AUDIO
TITLE "Starburst (Anthem Mix)"
PERFORMER "Razor's Edge"
INDEX 01 00:00:00
TRACK 02 AUDIO
TITLE "FF (Dark Dub)"
PERFORMER "Razor's Edge"
INDEX 00 08:26:32
INDEX 01 08:28:12
TRACK 03 AUDIO
TITLE "Jazzy Ed"
PERFORMER "Razor's Edge"
INDEX 00 18:15:55
INDEX 01 18:17:35
TRACK 04 AUDIO
TITLE "Tribal Sunrise (Acid Sunset Mix)"
PERFORMER "Razor's Edge"
INDEX 00 24:58:30
INDEX 01 25:00:10
TRACK 05 AUDIO
TITLE "Sleepless (Barrelbeat Original)"
PERFORMER "Razor's Edge"
INDEX 00 32:07:32
INDEX 01 32:08:70
TRACK 06 AUDIO
TITLE "Engazi Flow (Dancefloor NRG Mix)"
PERFORMER "Razor's Edge"
INDEX 00 38:28:60
INDEX 01 38:30:40
TRACK 07 AUDIO
TITLE "Equisite Sin (Disco Volante's Remix)"
PERFORMER "Razor's Edge"
INDEX 00 47:07:65
INDEX 01 47:09:45
TRACK 08 AUDIO
TITLE "Peace in Our Time"
PERFORMER "Razor's Edge"
INDEX 00 55:43:30
INDEX 01 55:45:10
TRACK 09 AUDIO
TITLE "The Zoo (Dancefloor NRG Original)"
PERFORMER "Razor's Edge"
INDEX 00 62:32:60
INDEX 01 62:34:40
TRACK 10 AUDIO
TITLE "The Freeze"
PERFORMER "Razor's Edge"
INDEX 00 69:57:60
INDEX 01 69:59:40

Лог проверки качества

AUDIOCHECKER v2.0 beta (build 457) - by Dester - opdester@freemail.hu
~~~~~~~~~~~~~~~~~~~~~~~~~~~~~~~~~~
-=== DO NOT EDIT THIS FILE! ===-
Path: ...\Razor's Edge - Exquisite Sin
1 -=- Razor's Edge - Exquisite Sin.flac -=- CDDA (99%)
167290884
ПРОСЬБА НЕ ПОКИДАТЬ РАЗДАЧУ

To download the file disable ad blocking, and reload the page.

disable adblock How to disable ad blocking?

Download by magnet link 461 MB Download Torrent

Login using:

Загрузка...

Similar topics

(Goa Trance) Kala & Yudhisthira - Aural Split - 2018, MP3, 320 kbps
 156 MB   0 | 0   07-May-18 13:55   1
(Goa Trance,Psy-Trance) VA - TIP Singles 1-4 (1997-2015), MP3, 320 kbps
 885 MB   0 | 0   04-May-18 14:47   3


   
Current time is: 16-Dec 17:43 :: All times are UTC + 3