Plasma Pleasure / Traveling Tales
Жанр: Goa Trance, Psy-Trance
Носитель: CD
Страна-производитель диска (релиза): Germany
Год издания: 1999
Издатель (лейбл): Blank Your Mind
Номер по каталогу: NTD 90921-22
Аудиокодек: FLAC (*.flac)
Тип рипа: image+.cue
Битрейт аудио: lossless
Источник (релизер): другой трекер
Наличие сканов в содержимом раздачи: нет
Треклист:
01. Cool Baba
02. Magnificant Fly
03. Colaba
04. Photon Tribe
05. Autogiro
06. Pulse Control
07. Gladiator
08. Galactic Gringo
09. Viper Island

Лог создания рипа

Exact Audio Copy V0.99 prebeta 4 from 23. January 2008
EAC extraction logfile from 14. September 2010, 13:21
Plasma Pleasure / Travelling Tales
Used drive : Optiarc DVD RW AD-5200A Adapter: 0 ID: 1
Read mode : Secure
Utilize accurate stream : Yes
Defeat audio cache : Yes
Make use of C2 pointers : No
Read offset correction : 48
Overread into Lead-In and Lead-Out : No
Fill up missing offset samples with silence : Yes
Delete leading and trailing silent blocks : No
Null samples used in CRC calculations : Yes
Used interface : Installed external ASPI interface
Used output format : User Defined Encoder
Selected bitrate : 128 kBit/s
Quality : High
Add ID3 tag : No
Command line compressor : C:\Program Files\FLAC\flac.exe
TOC of the extracted CD
Track | Start | Length | Start sector | End sector
---------------------------------------------------------
1 | 0:00.61 | 7:42.41 | 61 | 34751
2 | 7:43.27 | 7:42.47 | 34752 | 69448
3 | 15:25.74 | 7:28.46 | 69449 | 103094
4 | 22:54.45 | 8:07.09 | 103095 | 139628
5 | 31:01.54 | 6:24.73 | 139629 | 168501
6 | 37:26.52 | 7:49.46 | 168502 | 203722
7 | 45:16.23 | 8:21.70 | 203723 | 241367
8 | 53:38.18 | 6:39.56 | 241368 | 271348
9 | 60:17.74 | 8:05.04 | 271349 | 307727
Range status and errors
Selected range
Filename J:\music\goa\flac\0_temp\00\Plasma Pleasure - Travelling Tales\Plasma Pleasure - Travelling Tales.wav
Peak level 100.0 %
Range quality 100.0 %
Test CRC AEA87D85
Copy CRC AEA87D85
Copy OK
No errors occurred
AccurateRip summary
Track 1 not present in database
Track 2 not present in database
Track 3 not present in database
Track 4 not present in database
Track 5 not present in database
Track 6 not present in database
Track 7 not present in database
Track 8 not present in database
Track 9 not present in database
None of the tracks are present in the AccurateRip database
End of status report

Содержание индексной карты (.CUE)

REM DISCID 82100709
REM COMMENT "ExactAudioCopy v0.99pb4"
PERFORMER "Plasma Pleasure"
TITLE "Travelling Tales"
FILE "Plasma Pleasure - Travelling Tales.flac" WAVE
TRACK 01 AUDIO
TITLE "Cool Baba"
PERFORMER "Plasma Pleasure"
INDEX 00 00:00:00
INDEX 01 00:00:61
TRACK 02 AUDIO
TITLE "Magnificant Fly"
PERFORMER "Plasma Pleasure"
INDEX 00 07:41:39
INDEX 01 07:43:27
TRACK 03 AUDIO
TITLE "Colaba"
PERFORMER "Plasma Pleasure"
INDEX 00 15:24:11
INDEX 01 15:25:74
TRACK 04 AUDIO
TITLE "Photon Tribe"
PERFORMER "Plasma Pleasure"
INDEX 00 22:52:57
INDEX 01 22:54:45
TRACK 05 AUDIO
TITLE "Autogiro"
PERFORMER "Plasma Pleasure"
INDEX 00 30:59:66
INDEX 01 31:01:54
TRACK 06 AUDIO
TITLE "Pulse Control"
PERFORMER "Plasma Pleasure"
INDEX 00 37:24:64
INDEX 01 37:26:52
TRACK 07 AUDIO
TITLE "Gladiator"
PERFORMER "Plasma Pleasure"
INDEX 00 45:14:35
INDEX 01 45:16:23
TRACK 08 AUDIO
TITLE "Galactic Gringo"
PERFORMER "Plasma Pleasure"
INDEX 00 53:36:30
INDEX 01 53:38:18
TRACK 09 AUDIO
TITLE "Viper Island"
PERFORMER "Plasma Pleasure"
INDEX 00 60:16:11
INDEX 01 60:17:74

Лог проверки качества

AUDIOCHECKER v2.0 beta (build 457) - by Dester - opdester@freemail.hu
~~~~~~~~~~~~~~~~~~~~~~~~~~~~~~~~~~
-=== DO NOT EDIT THIS FILE! ===-
Path: ...\Plasma Pleasure - Travelling Tales
1 -=- Plasma Pleasure - Travelling Tales.flac -=- CDDA (100%)
12835908
ПРОСЬБА НЕ ПОКИДАТЬ РАЗДАЧУ

Для скачивания файла отключите блокировку рекламы и перезагрузите страницу.

disable adblock Как отключить блокировку рекламы?

Скачать по магнет ссылке 402 MB 

Войти с помощью:

Похожие раздачи

Внимание! Контент 18+ если вы младше данного возраста, НЕ переходите по ссылке!!!
(Acid, Goa trance, Psy-Trance) Space - Astro Cat 2.0 (2018), MP3, 320 kbps
 160 MB   0 | 0   08-Авг-18 09:30   0
(Progressive, Psy-Trance) VA - Goa Trance, Vol. 37 (2018), MP3, 320 kbps
 312 MB   0 | 0   03-Авг-18 09:15   0
(Goa Trance, Psytrance) Ubar Tmar - Early fusion (2018), MP3, 320 kbps
 173 MB   0 | 0   21-Июл-18 08:55   2


   
Текущее время: 17-Авг 11:26 :: Часовой пояс: UTC ± 0