Outer Active / Up And Atom
Жанр: Goa Trance
Носитель: CD
Страна-производитель диска (релиза): UK
Год издания: 1995
Издатель (лейбл): Pyramid Records
Номер по каталогу: PCD-002
Аудиокодек: FLAC (*.flac)
Тип рипа: tracks+.cue
Битрейт аудио: lossless
Источник (релизер): другой трекер
Наличие сканов в содержимом раздачи: нет
Треклист:
1. Up And Atom
2. Acrogen
3. Up And Atom (Bill's Quick-Snap-To-It Edit)

Лог создания рипа

Exact Audio Copy V0.99 prebeta 3 from 28. July 2007
EAC extraction logfile from 16. April 2009, 12:35
Outer Active / Up and Atom
Used drive : HL-DT-STDVD-RAM GSA-H20L Adapter: 2 ID: 0
Read mode : Secure
Utilize accurate stream : Yes
Defeat audio cache : Yes
Make use of C2 pointers : No
Read offset correction : 102
Overread into Lead-In and Lead-Out : No
Fill up missing offset samples with silence : Yes
Delete leading and trailing silent blocks : No
Null samples used in CRC calculations : Yes
Used interface : Installed external ASPI interface
Gap handling : Appended to previous track
Used output format : User Defined Encoder
Selected bitrate : 192 kBit/s
Quality : High
Add ID3 tag : No
Command line compressor : C:\Programme\Exact Audio Copy\flac.exe.
Additional command line options : -8 -A tukey(0.25) -A gauss(0.1875) -b 4096 -V -T "artist=%a" -T "title=%t" -T "album=%g" -T "date=%y" -T "tracknumber=%n" -T "genre=%m" %s
TOC of the extracted CD
Track | Start | Length | Start sector | End sector
---------------------------------------------------------
1 | 0:00.32 | 6:58.43 | 32 | 31424
2 | 6:59.00 | 7:55.30 | 31425 | 67079
3 | 14:54.30 | 3:35.02 | 67080 | 83206
Track 1
Filename D:\test\Outer Active - Up And Atom - Acrogen - Up And Atom (Edit)\01-Outer_Active_-_Up_and_Atom.wav
Pre-gap length 0:00:02.42
Peak level 100.0 %
Track quality 100.0 %
Test CRC 12EF31ED
Copy CRC 12EF31ED
Copy OK
Track 2
Filename D:\test\Outer Active - Up And Atom - Acrogen - Up And Atom (Edit)\02-Outer_Active_-_Acrogen.wav
Pre-gap length 0:00:01.53
Peak level 97.0 %
Track quality 100.0 %
Test CRC 943F3966
Copy CRC 943F3966
Copy OK
Track 3
Filename D:\test\Outer Active - Up And Atom - Acrogen - Up And Atom (Edit)\03-Outer_Active_-_Up_and_Atom_(Bill's_Quick-Snap-To-It_Edit).wav
Pre-gap length 0:00:01.33
Peak level 96.8 %
Track quality 100.0 %
Test CRC 799D4C4E
Copy CRC 799D4C4E
Copy OK
No errors occurred
End of status report

Содержание индексной карты (.CUE)

PERFORMER "Outer Active"
TITLE "Up And Atom / Acrogen / Up And Atom (Edit)"
FILE "01-Outer_Active_-_Up_And_Atom.wav" WAVE
TRACK 01 AUDIO
TITLE "Up And Atom"
PERFORMER "Outer Active"
PREGAP 00:00:32
INDEX 01 00:00:00
TRACK 02 AUDIO
TITLE "Acrogen"
PERFORMER "Outer Active"
INDEX 00 06:57:03
FILE "02-Outer_Active_-_Acrogen.wav" WAVE
INDEX 01 00:00:00
TRACK 03 AUDIO
TITLE "Up And Atom (Bill's Quick-Snap-To-It Edit)"
PERFORMER "Outer Active"
INDEX 00 07:54:05
FILE "03-Outer_Active_-_Up_And_Atom_(Bill's_Quick-Snap-To-It_Edit).wav" WAVE
INDEX 01 00:00:00

Лог проверки качества

AUDIOCHECKER v2.0 beta (build 457) - by Dester - opdester@freemail.hu
~~~~~~~~~~~~~~~~~~~~~~~~~~~~~~~~~~
-=== DO NOT EDIT THIS FILE! ===-
Path: ...\Outer_Active_-_Up_And_Atom_-_Acrogen_-_Up_And_Atom_(Edit)-1995-FLAC
1 -=- 01-Outer_Active_-_Up_And_Atom.flac -=- CDDA (100%)
2 -=- 02-Outer_Active_-_Acrogen.flac -=- CDDA (100%)
3 -=- 03-Outer_Active_-_Up_And_Atom_(Bill's_Quick-Snap-To-It_Edit).flac -=- CDDA (100%)
Summary 100,00% CDDA
236841604
ПРОСЬБА НЕ ПОКИДАТЬ РАЗДАЧУ

To download the file disable ad blocking, and reload the page.

disable adblock How to disable ad blocking?

Download by magnet link 133 MB Download Torrent

Login using:

Загрузка...

Similar topics

(Goa Trance) Outer Active - Up And Atom & Acrogen (1995), MP3, 320 kbps
 35 MB   0 | 0   16-Mar-17 04:20   1


   
Current time is: 16-Dec 14:13 :: All times are UTC + 3