Orichalcum / Live
Жанр: Goa Trance, Ambient
Носитель: CD
Страна-производитель диска (релиза): Denmark
Год издания: 1999
Издатель (лейбл): Creamcrop Records
Номер по каталогу: CCCD01
Аудиокодек: FLAC (*.flac)
Тип рипа: image+.cue
Битрейт аудио: lossless
Источник (релизер): другой трекер
Наличие сканов в содержимом раздачи: нет
Треклист:
1. Wicked
2. Homes
3. Are You?
4. Egg Cracked
5. Elevation
6. Cosmic Pillow

Лог создания рипа

Exact Audio Copy V0.99 prebeta 4 from 23. January 2008
Отчёт EAC об извлечении, выполненном 29. мая 2009, 4:12
Orichalcum / Live
Дисковод: Optiarc DVD RW AD-7203S Adapter: 2 ID: 1
Режим чтения : Достоверность
Использование точного потока : Да
Отключение кэша аудио : Да
Использование указателей C2 : Нет
Коррекция смещения при чтении : 48
Способность читать области Lead-in и Lead-out : Нет
Заполнение пропущенных сэмплов тишиной : Да
Удаление блоков с тишиной в начале и конце : Нет
При вычислениях CRC использовались нулевые сэмплы : Да
Интерфейс : Установленный внешний ASPI-интерфейс
Выходной формат : Пользовательский кодировщик
Выбранный битрейт : 1024 kBit/s
Качество : Высокий
Добавление ID3-тэга : Нет
Утилита сжатия : C:\Program Files\FLAC\flac.exe
Дополнительные параметры : -8 -V -T "ARTIST=%a" -T "TITLE=%t" -T "ALBUM=%g" -T "DATE=%y" -T "TRACKNUMBER=%n" -T "GENRE=%m" -T "COMMENT=EAC FLAC -8" %s
TOC извлечённого CD
Трек | Старт | Длительность | Начальный сектор | Конечный сектор
---------------------------------------------------------------------
1 | 0:00.00 | 6:24.12 | 0 | 28811
2 | 6:24.12 | 10:37.59 | 28812 | 76645
3 | 17:01.71 | 11:08.58 | 76646 | 126803
4 | 28:10.54 | 10:41.14 | 126804 | 174892
5 | 38:51.68 | 21:06.10 | 174893 | 269852
6 | 59:58.03 | 11:59.72 | 269853 | 323849
7 | 74:30.00 | 1:55.36 | 335250 | 343910
Характеристики диапазона извлечения и сообщения об ошибках
Выбранный диапазон
Имя файла D:\Свои\-=bulenat.ru=-\Orichalcum - Live - 1999\Orichalcum - Live.wav
Пиковый уровень 100.0 %
Качество диапазона 100.0 %
CRC теста EE5BCB94
CRC копии EE5BCB94
Копирование... OK
Ошибок не произошло
AccurateRip: сводка
Трек 1 точное извлечение (доверие 2) [1E8D72D0]
Трек 2 точное извлечение (доверие 2) [F0FC61DA]
Трек 3 точное извлечение (доверие 2) [1FDBC54B]
Трек 4 точное извлечение (доверие 2) [05F4F058]
Трек 5 точное извлечение (доверие 2) [433A0FA7]
Трек 6 точное извлечение (доверие 2) [C316D8B2]
Все треки извлечены точно
Конец отчёта

Содержание индексной карты (.CUE)

REM GENRE Psychadelic
REM DATE 1999
REM DISCID 5011E907
REM COMMENT "ExactAudioCopy v0.99pb4"
PERFORMER "Orichalcum"
TITLE "Live"
FILE "Orichalcum - Live.flac" WAVE
TRACK 01 AUDIO
TITLE "Wicked"
PERFORMER "Orichalcum"
INDEX 01 00:00:00
TRACK 02 AUDIO
TITLE "Homes"
PERFORMER "Orichalcum"
INDEX 01 06:24:12
TRACK 03 AUDIO
TITLE "Are You?"
PERFORMER "Orichalcum"
INDEX 01 17:01:71
TRACK 04 AUDIO
TITLE "Egg Cracked"
PERFORMER "Orichalcum"
INDEX 01 28:10:54
TRACK 05 AUDIO
TITLE "Elevation"
PERFORMER "Orichalcum"
INDEX 01 38:51:68
TRACK 06 AUDIO
TITLE "Cosmic Pillow"
PERFORMER "Orichalcum"
INDEX 00 59:40:68
INDEX 01 59:58:03

Лог проверки качества

AUDIOCHECKER v2.0 beta (build 457) - by Dester - opdester@freemail.hu
~~~~~~~~~~~~~~~~~~~~~~~~~~~~~~~~~~
-=== DO NOT EDIT THIS FILE! ===-
Path: ...\Orichalcum - Live - 1999
1 -=- Orichalcum - Live.flac -=- CDDA (100%)
186773828
ПРОСЬБА НЕ ПОКИДАТЬ РАЗДАЧУ

To download the file disable ad blocking, and reload the page.

disable adblock How to disable ad blocking?

Download by magnet link 448 MB Download Torrent

Login using:

Загрузка...

Similar topics



   
Current time is: 16-Dec 17:43 :: All times are UTC + 3