Medicine Drum / Suraya Mela E.P.
Жанр: Goa Trance
Носитель: CD
Страна-производитель диска (релиза): UK
Год издания: 1996
Издатель (лейбл): Pyramid Records
Номер по каталогу: PCD 003
Аудиокодек: FLAC (*.flac)
Тип рипа: tracks+.cue
Битрейт аудио: lossless
Источник (релизер): другой трекер
Наличие сканов в содержимом раздачи: нет
Треклист:
1. Suraya Mela (Acid Samosa Mix)
2. Suraya Mela (Psychedubic Trip'N'Bass Mix)
3. Suraya Mela (Dr Who Mix)
4. Water (Original Mix)
5. Ulhuru

Лог создания рипа

Exact Audio Copy V0.99 prebeta 4 from 23. January 2008
EAC extraction logfile from 23. May 2009, 12:17
Medicine Drum / Suraya Mela E.P.
Used drive : HL-DT-STDVD-RAM GSA-H20L Adapter: 2 ID: 0
Read mode : Secure
Utilize accurate stream : Yes
Defeat audio cache : Yes
Make use of C2 pointers : No
Read offset correction : 102
Overread into Lead-In and Lead-Out : No
Fill up missing offset samples with silence : Yes
Delete leading and trailing silent blocks : No
Null samples used in CRC calculations : Yes
Used interface : Installed external ASPI interface
Gap handling : Appended to previous track
Used output format : User Defined Encoder
Selected bitrate : 192 kBit/s
Quality : High
Add ID3 tag : No
Command line compressor : C:\Programme\Exact Audio Copy\flac.exe.
Additional command line options : -8 -A tukey(0.25) -A gauss(0.1875) -b 4096 -V -T "artist=%a" -T "title=%t" -T "album=%g" -T "date=%y" -T "tracknumber=%n" -T "genre=%m" %s
TOC of the extracted CD
Track | Start | Length | Start sector | End sector
---------------------------------------------------------
1 | 0:00.32 | 7:01.03 | 32 | 31609
2 | 7:01.35 | 6:41.65 | 31610 | 61749
3 | 13:43.25 | 7:14.72 | 61750 | 94371
4 | 20:58.22 | 8:18.08 | 94372 | 131729
5 | 29:16.30 | 7:01.35 | 131730 | 163339
Track 1
Filename D:\tmp\Medicine Drum - Suraya Mela E.P.\01-Medicine_Drum_-_Suraya_Mela_(Acid_Samosa_Mix).wav
Pre-gap length 0:00:02.32
Peak level 96.8 %
Track quality 99.9 %
Test CRC 1179E097
Copy CRC 1179E097
Track not present in AccurateRip database
Copy OK
Track 2
Filename D:\tmp\Medicine Drum - Suraya Mela E.P.\02-Medicine_Drum_-_Suraya_Mela_(Psychedubic_Trip'N'Bass_Mix).wav
Pre-gap length 0:00:04.30
Peak level 96.8 %
Track quality 100.0 %
Test CRC F0B93103
Copy CRC F0B93103
Track not present in AccurateRip database
Copy OK
Track 3
Filename D:\tmp\Medicine Drum - Suraya Mela E.P.\03-Medicine_Drum_-_Suraya_Mela_(Dr_Who_Mix).wav
Pre-gap length 0:00:02.73
Peak level 96.9 %
Track quality 100.0 %
Test CRC C9231BDA
Copy CRC C9231BDA
Track not present in AccurateRip database
Copy OK
Track 4
Filename D:\tmp\Medicine Drum - Suraya Mela E.P.\04-Medicine_Drum_-_Water_(Original_Mix).wav
Pre-gap length 0:00:01.50
Peak level 96.8 %
Track quality 99.9 %
Test CRC E0BEA4FF
Copy CRC E0BEA4FF
Track not present in AccurateRip database
Copy OK
Track 5
Filename D:\tmp\Medicine Drum - Suraya Mela E.P.\05-Medicine_Drum_-_Ulhuru.wav
Pre-gap length 0:00:01.63
Peak level 96.8 %
Track quality 100.0 %
Test CRC 1D984898
Copy CRC 1D984898
Track not present in AccurateRip database
Copy OK
None of the tracks are present in the AccurateRip database
No errors occurred
End of status report

Содержание индексной карты (.CUE)

REM GENRE Goa
REM DATE 1996
REM DISCID 38088105
REM COMMENT "ExactAudioCopy v0.99pb4"
PERFORMER "Medicine Drum"
TITLE "Suraya Mela EP"
FILE "01-Medicine_Drum_-_Suraya_Mela_(Acid_Samosa_Mix).wav" WAVE
TRACK 01 AUDIO
TITLE "Suraya Mela (Acid Samosa Mix)"
PERFORMER "Medicine Drum"
PREGAP 00:00:32
INDEX 01 00:00:00
TRACK 02 AUDIO
TITLE "Suraya Mela (Psychedubic Trip'N'Bass Mix)"
PERFORMER "Medicine Drum"
INDEX 00 06:56:48
FILE "02-Medicine_Drum_-_Suraya_Mela_(Psychedubic_Trip'N'Bass_Mix).wav" WAVE
INDEX 01 00:00:00
TRACK 03 AUDIO
TITLE "Suraya Mela (Dr Who Mix)"
PERFORMER "Medicine Drum"
INDEX 00 06:38:67
FILE "03-Medicine_Drum_-_Suraya_Mela_(Dr_Who_Mix).wav" WAVE
INDEX 01 00:00:00
TRACK 04 AUDIO
TITLE "Water (Original Mix)"
PERFORMER "Medicine Drum"
INDEX 00 07:13:22
FILE "04-Medicine_Drum_-_Water_(Original_Mix).wav" WAVE
INDEX 01 00:00:00
TRACK 05 AUDIO
TITLE "Ulhuru"
PERFORMER "Medicine Drum"
INDEX 00 08:16:20
FILE "05-Medicine_Drum_-_Ulhuru.wav" WAVE
INDEX 01 00:00:00

Лог проверки качества

AUDIOCHECKER v2.0 beta (build 457) - by Dester - opdester@freemail.hu
~~~~~~~~~~~~~~~~~~~~~~~~~~~~~~~~~~
-=== DO NOT EDIT THIS FILE! ===-
Path: ...\Medicine_Drum_-_Suraya_Mela_E.P.-1996-FLAC
1 -=- 01-Medicine_Drum_-_Suraya_Mela_(Acid_Samosa_Mix).flac -=- CDDA (100%)
2 -=- 02-Medicine_Drum_-_Suraya_Mela_(Psychedubic_Trip'N'Bass_Mix).flac -=- CDDA (100%)
3 -=- 03-Medicine_Drum_-_Suraya_Mela_(Dr_Who_Mix).flac -=- CDDA (100%)
4 -=- 04-Medicine_Drum_-_Water_(Original_Mix).flac -=- CDDA (100%)
5 -=- 05-Medicine_Drum_-_Ulhuru.flac -=- CDDA (100%)
Summary 100,00% CDDA
108105924
ПРОСЬБА НЕ ПОКИДАТЬ РАЗДАЧУ

To download the file disable ad blocking, and reload the page.

disable adblock How to disable ad blocking?

Download by magnet link 215 MB Download Torrent

Login using:

Загрузка...

Similar topics

(Goa Trance) Kala & Yudhisthira - Aural Split - 2018, MP3, 320 kbps
 156 MB   0 | 0   07-May-18 13:55   1
(Goa Trance,Psy-Trance) VA - TIP Singles 1-4 (1997-2015), MP3, 320 kbps
 885 MB   0 | 0   04-May-18 14:47   3


   
Current time is: 16-Dec 13:38 :: All times are UTC + 3