Jeff MK-Ultra / Psychedelic Life
Жанр: Ambient, Goa Trance
Носитель: CD
Страна-производитель диска (релиза): Canada
Год издания: 1998
Издатель (лейбл): Aum Records
Номер по каталогу: none
Аудиокодек: FLAC (*.flac)
Тип рипа: tracks+.cue
Битрейт аудио: lossless
Источник (релизер): другой трекер
Наличие сканов в содержимом раздачи: нет
Треклист:
01-MK-Ultra - Neurocosmic
02-MK-Ultra - Ouverture
03-MK-Ultra - Computer's_Ghost
04-MK-Ultra - 111
05-Underhead - Unify Feeling
06-Underhead - Whirlrain Of Fire
07-Underhead - Le P'tit Matos
08-Underhead -Orojuna
09-MK-Ultra - Flatliner

Лог создания рипа

Exact Audio Copy V1.0 beta 3 from 29. August 2011
EAC extraction logfile from 30. September 2011, 20:32
Jeff MK-Ultra / Psychedelic Life
Used drive : TSSTcorpCDDVDW SH-S222A Adapter: 0 ID: 0
Read mode : Secure
Utilize accurate stream : Yes
Defeat audio cache : Yes
Make use of C2 pointers : No
Read offset correction : 6
Overread into Lead-In and Lead-Out : No
Fill up missing offset samples with silence : Yes
Delete leading and trailing silent blocks : No
Null samples used in CRC calculations : Yes
Used interface : Native Win32 interface for Win NT & 2000
Gap handling : Appended to previous track
Used output format : Internal WAV Routines
Sample format : 44.100 Hz; 16 Bit; Stereo
TOC of the extracted CD
Track | Start | Length | Start sector | End sector
---------------------------------------------------------
1 | 0:00.00 | 8:40.35 | 0 | 39034
2 | 8:40.35 | 3:21.39 | 39035 | 54148
3 | 12:01.74 | 6:19.66 | 54149 | 82639
4 | 18:21.65 | 6:12.43 | 82640 | 110582
5 | 24:34.33 | 7:51.17 | 110583 | 145924
6 | 32:25.50 | 5:57.74 | 145925 | 172773
7 | 38:23.49 | 6:48.29 | 172774 | 203402
8 | 45:12.03 | 10:52.26 | 203403 | 252328
9 | 56:04.29 | 6:28.01 | 252329 | 281429
Track 1
Filename F:\Temp\Jeff_MK-Ultra_-_Psychedelic_Life-1998-FLAC\1 - MK-Ultra - Neurocosmic.wav
Pre-gap length 0:00:02.00
Peak level 100.0 %
Extraction speed 2.2 X
Track quality 100.0 %
Test CRC 0358F3F5
Copy CRC 0358F3F5
Track not present in AccurateRip database
Copy OK
Track 2
Filename F:\Temp\Jeff_MK-Ultra_-_Psychedelic_Life-1998-FLAC\2 - MK-Ultra - Ouverture.wav
Pre-gap length 0:00:02.00
Peak level 100.0 %
Extraction speed 1.7 X
Track quality 99.9 %
Test CRC A320EB3F
Copy CRC A320EB3F
Track not present in AccurateRip database
Copy OK
Track 3
Filename F:\Temp\Jeff_MK-Ultra_-_Psychedelic_Life-1998-FLAC\3 - MK-Ultra - Computer's Ghost.wav
Pre-gap length 0:00:02.00
Peak level 100.0 %
Extraction speed 2.2 X
Track quality 100.0 %
Test CRC D980CB40
Copy CRC D980CB40
Track not present in AccurateRip database
Copy OK
Track 4
Filename F:\Temp\Jeff_MK-Ultra_-_Psychedelic_Life-1998-FLAC\4 - MK-Ultra - 111.wav
Pre-gap length 0:00:01.89
Peak level 100.0 %
Extraction speed 2.2 X
Track quality 100.0 %
Test CRC CE3AF013
Copy CRC CE3AF013
Track not present in AccurateRip database
Copy OK
Track 5
Filename F:\Temp\Jeff_MK-Ultra_-_Psychedelic_Life-1998-FLAC\5 - Underhead - Unify Feeling.wav
Pre-gap length 0:00:02.00
Peak level 100.0 %
Extraction speed 2.2 X
Track quality 100.0 %
Test CRC E3D247CE
Copy CRC E3D247CE
Track not present in AccurateRip database
Copy OK
Track 6
Filename F:\Temp\Jeff_MK-Ultra_-_Psychedelic_Life-1998-FLAC\6 - Underhead - Whirlrain Of Fire.wav
Pre-gap length 0:00:01.96
Peak level 100.0 %
Extraction speed 2.2 X
Track quality 100.0 %
Test CRC 52B8EA89
Copy CRC 52B8EA89
Track not present in AccurateRip database
Copy OK
Track 7
Filename F:\Temp\Jeff_MK-Ultra_-_Psychedelic_Life-1998-FLAC\7 - Underhead - Le P'tit Matos.wav
Pre-gap length 0:00:01.94
Peak level 100.0 %
Extraction speed 2.2 X
Track quality 100.0 %
Test CRC 12D584AF
Copy CRC 12D584AF
Track not present in AccurateRip database
Copy OK
Track 8
Filename F:\Temp\Jeff_MK-Ultra_-_Psychedelic_Life-1998-FLAC\8 - Underhead - Orojuna.wav
Pre-gap length 0:00:02.00
Peak level 100.0 %
Extraction speed 2.1 X
Track quality 99.9 %
Test CRC 3727C9DB
Copy CRC 3727C9DB
Track not present in AccurateRip database
Copy OK
Track 9
Filename F:\Temp\Jeff_MK-Ultra_-_Psychedelic_Life-1998-FLAC\9 - MK-Ultra - Flatliner.wav
Pre-gap length 0:00:01.97
Peak level 100.0 %
Extraction speed 2.2 X
Track quality 100.0 %
Test CRC 3912DF04
Copy CRC 3912DF04
Track not present in AccurateRip database
Copy OK
None of the tracks are present in the AccurateRip database
No errors occurred
End of status report
==== Log checksum 9CF0F637B8EE32A7C260ABFA9A7F708D7FFA8AE88AD1389067B041BF17996044 ====

Содержание индексной карты (.CUE)

REM GENRE Electronic
REM DATE 1998
REM DISCID 6D0EA809
REM COMMENT "ExactAudioCopy v1.0b3"
PERFORMER "Jeff MK-Ultra"
TITLE "Psychedelic Life"
FILE "01-MK-Ultra_-_Neurocosmic.wav" WAVE
TRACK 01 AUDIO
TITLE "Neurocosmic"
PERFORMER "MK-Ultra"
FLAGS DCP
INDEX 01 00:00:00
TRACK 02 AUDIO
TITLE "Ouverture"
PERFORMER "MK-Ultra"
FLAGS DCP
INDEX 00 08:38:35
FILE "02-MK-Ultra_-_Ouverture.wav" WAVE
INDEX 01 00:00:00
TRACK 03 AUDIO
TITLE "Computer's Ghost"
PERFORMER "MK-Ultra"
FLAGS DCP
INDEX 00 03:19:39
FILE "03-MK-Ultra_-_Computer's_Ghost.wav" WAVE
INDEX 01 00:00:00
TRACK 04 AUDIO
TITLE "111"
PERFORMER "MK-Ultra"
FLAGS DCP
INDEX 00 06:17:74
FILE "04-MK-Ultra_-_111.wav" WAVE
INDEX 01 00:00:00
TRACK 05 AUDIO
TITLE "Unify Feeling"
PERFORMER "Underhead"
FLAGS DCP
INDEX 00 06:10:43
FILE "05-Underhead_-_Unify_Feeling.wav" WAVE
INDEX 01 00:00:00
TRACK 06 AUDIO
TITLE "Whirlrain Of Fire"
PERFORMER "Underhead"
FLAGS DCP
INDEX 00 07:49:20
FILE "06-Underhead_-_Whirlrain_Of_Fire.wav" WAVE
INDEX 01 00:00:00
TRACK 07 AUDIO
TITLE "Le P'tit Matos"
PERFORMER "Underhead"
FLAGS DCP
INDEX 00 05:56:03
FILE "07-Underhead_-_Le_P'tit_Matos.wav" WAVE
INDEX 01 00:00:00
TRACK 08 AUDIO
TITLE "Orojuna"
PERFORMER "Underhead"
FLAGS DCP
INDEX 00 06:46:29
FILE "08-Underhead_-_Orojuna.wav" WAVE
INDEX 01 00:00:00
TRACK 09 AUDIO
TITLE "Flatliner"
PERFORMER "MK-Ultra"
FLAGS DCP
INDEX 00 10:50:28
FILE "09-MK-Ultra_-_Flatliner.wav" WAVE
INDEX 01 00:00:00

Лог проверки качества

AUDIOCHECKER v2.0 beta (build 457) - by Dester - opdester@freemail.hu
~~~~~~~~~~~~~~~~~~~~~~~~~~~~~~~~~~
-=== DO NOT EDIT THIS FILE! ===-
Path: ...\Jeff_MK-Ultra_-_Psychedelic_Life-1998-FLAC
1 -=- 01-MK-Ultra_-_Neurocosmic.flac -=- CDDA (100%)
2 -=- 02-MK-Ultra_-_Ouverture.flac -=- CDDA (100%)
3 -=- 03-MK-Ultra_-_Computer's_Ghost.flac -=- CDDA (100%)
4 -=- 04-MK-Ultra_-_111.flac -=- CDDA (100%)
5 -=- 05-Underhead_-_Unify_Feeling.flac -=- CDDA (100%)
6 -=- 06-Underhead_-_Whirlrain_Of_Fire.flac -=- CDDA (100%)
7 -=- 07-Underhead_-_Le_P'tit_Matos.flac -=- CDDA (100%)
8 -=- 08-Underhead_-_Orojuna.flac -=- CDDA (100%)
9 -=- 09-MK-Ultra_-_Flatliner.flac -=- CDDA (99%)
Summary 99,89% CDDA
135076980
Эксклюзив тут:
ПРОСЬБА НЕ ПОКИДАТЬ РАЗДАЧУ

To download the file disable ad blocking, and reload the page.

disable adblock How to disable ad blocking?

Download by magnet link 337 MB Download Torrent

Login using:

Загрузка...

Similar topics



   
Current time is: 16-Dec 19:08 :: All times are UTC + 3