Gary D. - D.Trance 6
Жанр: Hard Trance
Label: DJs Present, Rough Trade Germany
Catalog#: PIASD 2017 CD, RTD CD 375.2017.2
Format: 2xCD Unmixed, 3rd CD Mixed
Год выпуска: 1997
Формат: FLAC (tracks+.cue)
По discogs: http://www.discogs.com/release/190797
Общая продолжительность: CD1 - 75:22; CD2 - 76:18; CD3 - 58:06
Трэклист:
1-01 Atomic Junkies - This Is It 8:14
1-02 Ayla - Ayla (Taucher Remix) 9:34
1-03 Los Pablos - Back To Reality (Extended Mix) 7:49
1-04 Clima-X - Pictures 5:07
1-05 DJ Dee M - Eternal 6:43
1-06 DJ Richard & Johnny Bass - Danger 5:53
1-07 Reflection 4 - Tic Tac (Original Mix) 5:04
1-08 Sound Structure - Reality 8:30
1-09 EX-3 - Extres-A-2 5:26
1-10 Recall II - Operation Decoy 5:44
1-11 Transport X - Moments Of Silence 7:13
2-01 Gary D. - Can't Do Without It (Espanola Summer Slam) (Gary D. & DJ Yanny Mix) 7:20
2-02 Free Jack - Sunburst (Original Mix) 5:21
2-03 Oyez! - Our Nights (Hardtrance Mix) 6:48
2-04 B-Voice - Eternity (DJ Mind-X & Punisher Remix) 7:12
2-05 Acid Bells - Acid Bells (Campanadas Mix) 5:29
2-06 DJ Manga - Judgement Day 7:13
2-07 Royal Hype - To Be There (Stratosphere Mix) 7:15
2-08 Jumpers - Gungleboy (Down Gungle) 6:01
2-09 Rodd-Y-Ler - Remember 7:10
2-10 Zentral - Attack 5:33
2-11 Zone One - Whistle In The Dark 3:53
2-12 Code 28 - Feel My Desire (Cocooma Remix) 7:01
3-01 Various - Special Megamix By Gary D. 58:06
Продолжаем заполнять пробелы в D.Trance-

Лог EAC CD1

Exact Audio Copy V0.99 prebeta 5 from 4. May 2009
EAC extraction logfile from 17. January 2010, 17:38
Various / Gary D. - D.Trance 06
Used drive : MATSHITADVD-RAM UJ-846S Adapter: 0 ID: 0
Read mode : Secure
Utilize accurate stream : Yes
Defeat audio cache : Yes
Make use of C2 pointers : No
Read offset correction : 102
Overread into Lead-In and Lead-Out : No
Fill up missing offset samples with silence : Yes
Delete leading and trailing silent blocks : No
Null samples used in CRC calculations : Yes
Used interface : Native Win32 interface for Win NT & 2000
Gap handling : Appended to previous track
Used output format : User Defined Encoder
Selected bitrate : 128 kBit/s
Quality : High
Add ID3 tag : No
Command line compressor : C:\Program Files\Exact Audio Copy\Flac\flac.exe
Additional command line options : -8 -V -T "ARTIST=%a" -T "TITLE=%t" -T "ALBUM=%g" -T "DATE=%y" -T "TRACKNUMBER=%n" -T "GENRE=%m" -T "COMMENT=ripped by DrStandBy" %s
TOC of the extracted CD
Track | Start | Length | Start sector | End sector
---------------------------------------------------------
1 | 0:00.00 | 8:14.37 | 0 | 37086
2 | 8:14.37 | 9:34.35 | 37087 | 80171
3 | 17:48.72 | 7:49.28 | 80172 | 115374
4 | 25:38.25 | 5:07.52 | 115375 | 138451
5 | 30:46.02 | 6:43.43 | 138452 | 168719
6 | 37:29.45 | 5:53.62 | 168720 | 195256
7 | 43:23.32 | 5:06.40 | 195257 | 218246
8 | 48:29.72 | 8:30.18 | 218247 | 256514
9 | 57:00.15 | 5:26.40 | 256515 | 281004
10 | 62:26.55 | 5:44.27 | 281005 | 306831
11 | 68:11.07 | 7:13.18 | 306832 | 339324
Track 1
Filename C:\My Music\Gary D\1997 - Gary D. - D.Trance 6\1-01. Atomic Junkies - This Is It.wav
Pre-gap length 0:00:02.00
Peak level 98.8 %
Track quality 100.0 %
Test CRC 6A5CA2B4
Copy CRC 6A5CA2B4
Accurately ripped (confidence 5) [D9539352]
Copy OK
Track 2
Filename C:\My Music\Gary D\1997 - Gary D. - D.Trance 6\1-02. Ayla - Ayla (Taucher Remix).wav
Pre-gap length 0:00:02.62
Peak level 98.8 %
Track quality 99.9 %
Test CRC 14CDEBFB
Copy CRC 14CDEBFB
Accurately ripped (confidence 5) [8A2F5D02]
Copy OK
Track 3
Filename C:\My Music\Gary D\1997 - Gary D. - D.Trance 6\1-03. Los Pablos - Back To Reality (Extended Mix).wav
Pre-gap length 0:00:02.66
Peak level 98.0 %
Track quality 100.0 %
Test CRC 8E398A7C
Copy CRC 8E398A7C
Accurately ripped (confidence 5) [456FC4B5]
Copy OK
Track 4
Filename C:\My Music\Gary D\1997 - Gary D. - D.Trance 6\1-04. Clima-X - Pictures.wav
Pre-gap length 0:00:02.66
Peak level 98.0 %
Track quality 100.0 %
Test CRC F7FBDE40
Copy CRC F7FBDE40
Accurately ripped (confidence 5) [DFFA1F50]
Copy OK
Track 5
Filename C:\My Music\Gary D\1997 - Gary D. - D.Trance 6\1-05. DJ Dee M - Eternal.wav
Pre-gap length 0:00:02.66
Peak level 98.0 %
Track quality 100.0 %
Test CRC 688B2335
Copy CRC 688B2335
Accurately ripped (confidence 5) [BFD8DD83]
Copy OK
Track 6
Filename C:\My Music\Gary D\1997 - Gary D. - D.Trance 6\1-06. DJ Richard & Johnny Bass - Danger.wav
Pre-gap length 0:00:02.66
Peak level 98.0 %
Track quality 100.0 %
Test CRC A0913D13
Copy CRC A0913D13
Accurately ripped (confidence 5) [C2C3BE27]
Copy OK
Track 7
Filename C:\My Music\Gary D\1997 - Gary D. - D.Trance 6\1-07. Reflection 4 - Tic Tac (Original Mix).wav
Pre-gap length 0:00:03.02
Peak level 92.1 %
Track quality 100.0 %
Test CRC 85269313
Copy CRC 85269313
Accurately ripped (confidence 5) [E2E78F60]
Copy OK
Track 8
Filename C:\My Music\Gary D\1997 - Gary D. - D.Trance 6\1-08. Sound Structure - Reality.wav
Pre-gap length 0:00:02.66
Peak level 96.9 %
Track quality 100.0 %
Test CRC 4016562A
Copy CRC 4016562A
Accurately ripped (confidence 5) [1D95DA70]
Copy OK
Track 9
Filename C:\My Music\Gary D\1997 - Gary D. - D.Trance 6\1-09. EX-3 - Extres-A-2.wav
Pre-gap length 0:00:02.66
Peak level 97.1 %
Track quality 100.0 %
Test CRC 622309E9
Copy CRC 622309E9
Accurately ripped (confidence 5) [2369BFAF]
Copy OK
Track 10
Filename C:\My Music\Gary D\1997 - Gary D. - D.Trance 6\1-10. Recall II - Operation Decoy.wav
Pre-gap length 0:00:02.66
Peak level 97.5 %
Track quality 99.9 %
Test CRC 9FED2850
Copy CRC 9FED2850
Accurately ripped (confidence 5) [D4CE2AEE]
Copy OK
Track 11
Filename C:\My Music\Gary D\1997 - Gary D. - D.Trance 6\1-11. Tranceport X - Moments Of Silence.wav
Pre-gap length 0:00:02.66
Peak level 97.6 %
Track quality 100.0 %
Test CRC 7E3FAA91
Copy CRC 7E3FAA91
Accurately ripped (confidence 5) [8DB5B874]
Copy OK
All tracks accurately ripped
No errors occurred
End of status report

Лог EAC CD2

Exact Audio Copy V0.99 prebeta 5 from 4. May 2009
EAC extraction logfile from 17. January 2010, 20:02
Various / Gary D. - D.Trance 06
Used drive : MATSHITADVD-RAM UJ-846S Adapter: 0 ID: 0
Read mode : Secure
Utilize accurate stream : Yes
Defeat audio cache : Yes
Make use of C2 pointers : No
Read offset correction : 102
Overread into Lead-In and Lead-Out : No
Fill up missing offset samples with silence : Yes
Delete leading and trailing silent blocks : No
Null samples used in CRC calculations : Yes
Used interface : Native Win32 interface for Win NT & 2000
Gap handling : Appended to previous track
Used output format : User Defined Encoder
Selected bitrate : 128 kBit/s
Quality : High
Add ID3 tag : No
Command line compressor : C:\Program Files\Exact Audio Copy\Flac\flac.exe
Additional command line options : -8 -V -T "ARTIST=%a" -T "TITLE=%t" -T "ALBUM=%g" -T "DATE=%y" -T "TRACKNUMBER=%n" -T "GENRE=%m" -T "COMMENT=ripped by DrStandBy" %s
TOC of the extracted CD
Track | Start | Length | Start sector | End sector
---------------------------------------------------------
1 | 0:00.00 | 7:20.40 | 0 | 33039
2 | 7:20.40 | 5:21.22 | 33040 | 57136
3 | 12:41.62 | 6:48.33 | 57137 | 87769
4 | 19:30.20 | 7:12.15 | 87770 | 120184
5 | 26:42.35 | 5:29.35 | 120185 | 144894
6 | 32:11.70 | 7:13.37 | 144895 | 177406
7 | 39:25.32 | 7:15.23 | 177407 | 210054
8 | 46:40.55 | 6:01.20 | 210055 | 237149
9 | 52:42.00 | 7:10.25 | 237150 | 269424
10 | 59:52.25 | 5:33.07 | 269425 | 294406
11 | 65:25.32 | 3:53.23 | 294407 | 311904
12 | 69:18.55 | 7:01.20 | 311905 | 343499
Track 1
Filename C:\My Music\Gary D\1997 - Gary D. - D.Trance 6\2-01. Gary D. - Can't Do Without It - Espanola Summer Slam (Gary D. & DJ Yanny Mix).wav
Pre-gap length 0:00:02.00
Peak level 98.8 %
Track quality 100.0 %
Test CRC A57166DF
Copy CRC A57166DF
Accurately ripped (confidence 5) [450DA892]
Copy OK
Track 2
Filename C:\My Music\Gary D\1997 - Gary D. - D.Trance 6\2-02. Free Jack - Sunburst (Original Mix).wav
Pre-gap length 0:00:02.66
Peak level 96.9 %
Track quality 100.0 %
Test CRC 9C3758A5
Copy CRC 9C3758A5
Accurately ripped (confidence 5) [3F147FFA]
Copy OK
Track 3
Filename C:\My Music\Gary D\1997 - Gary D. - D.Trance 6\2-03. Oyez! - Our Nights (Hardtrance Mix).wav
Pre-gap length 0:00:02.66
Peak level 96.7 %
Track quality 99.9 %
Test CRC A5CDA5A9
Copy CRC A5CDA5A9
Accurately ripped (confidence 5) [3FB8A1C3]
Copy OK
Track 4
Filename C:\My Music\Gary D\1997 - Gary D. - D.Trance 6\2-04. B-Voice - Eternity (DJ Mind-X & Punisher Remix).wav
Pre-gap length 0:00:02.66
Peak level 97.2 %
Track quality 100.0 %
Test CRC E134F03E
Copy CRC E134F03E
Accurately ripped (confidence 5) [81E30647]
Copy OK
Track 5
Filename C:\My Music\Gary D\1997 - Gary D. - D.Trance 6\2-05. Acid Bells - Acid Bells (Campandas Mix).wav
Pre-gap length 0:00:02.66
Peak level 98.3 %
Track quality 100.0 %
Test CRC 21749E38
Copy CRC 21749E38
Accurately ripped (confidence 5) [EB6D4F5D]
Copy OK
Track 6
Filename C:\My Music\Gary D\1997 - Gary D. - D.Trance 6\2-06. DJ Manga - Judgement Day.wav
Pre-gap length 0:00:02.66
Peak level 98.8 %
Track quality 100.0 %
Test CRC 224C24B5
Copy CRC 224C24B5
Accurately ripped (confidence 5) [52C8F7DA]
Copy OK
Track 7
Filename C:\My Music\Gary D\1997 - Gary D. - D.Trance 6\2-07. Royal Hype - To Be There (Stratosphere Mix).wav
Pre-gap length 0:00:02.66
Peak level 97.6 %
Track quality 99.9 %
Test CRC 58E4423D
Copy CRC 58E4423D
Accurately ripped (confidence 5) [FB9BCD30]
Copy OK
Track 8
Filename C:\My Music\Gary D\1997 - Gary D. - D.Trance 6\2-08. Jumpers - Gungleboy (Down Gungle).wav
Pre-gap length 0:00:02.66
Peak level 98.1 %
Track quality 99.9 %
Test CRC 2A932A92
Copy CRC 2A932A92
Accurately ripped (confidence 5) [7CA667C5]
Copy OK
Track 9
Filename C:\My Music\Gary D\1997 - Gary D. - D.Trance 6\2-09. Rodd-Y-Ler - Remember.wav
Pre-gap length 0:00:02.66
Peak level 97.9 %
Track quality 99.9 %
Test CRC 964EEB60
Copy CRC 964EEB60
Accurately ripped (confidence 5) [F3A065D0]
Copy OK
Track 10
Filename C:\My Music\Gary D\1997 - Gary D. - D.Trance 6\2-10. Zentral - Attack.wav
Pre-gap length 0:00:02.66
Peak level 98.8 %
Track quality 100.0 %
Test CRC DA810EC8
Copy CRC DA810EC8
Accurately ripped (confidence 5) [C574CCDF]
Copy OK
Track 11
Filename C:\My Music\Gary D\1997 - Gary D. - D.Trance 6\2-11. One House Nation - Whistle In The Dark.wav
Pre-gap length 0:00:02.66
Peak level 98.4 %
Track quality 99.8 %
Test CRC 74F3DD37
Copy CRC 74F3DD37
Accurately ripped (confidence 5) [93F9AFE3]
Copy OK
Track 12
Filename C:\My Music\Gary D\1997 - Gary D. - D.Trance 6\2-12. Code 28 - Feel My Desire (Cocooma Remix).wav
Pre-gap length 0:00:02.66
Peak level 95.5 %
Track quality 100.0 %
Test CRC C902B423
Copy CRC C902B423
Accurately ripped (confidence 5) [3891417A]
Copy OK
All tracks accurately ripped
No errors occurred
End of status report

Лог EAC CD3

Exact Audio Copy V0.99 prebeta 5 from 4. May 2009
EAC extraction logfile from 17. January 2010, 21:35
Various / Gary D. - D.Trance 06
Used drive : MATSHITADVD-RAM UJ-846S Adapter: 0 ID: 0
Read mode : Secure
Utilize accurate stream : Yes
Defeat audio cache : Yes
Make use of C2 pointers : No
Read offset correction : 102
Overread into Lead-In and Lead-Out : No
Fill up missing offset samples with silence : Yes
Delete leading and trailing silent blocks : No
Null samples used in CRC calculations : Yes
Used interface : Native Win32 interface for Win NT & 2000
Used output format : User Defined Encoder
Selected bitrate : 128 kBit/s
Quality : High
Add ID3 tag : No
Command line compressor : C:\Program Files\Exact Audio Copy\Flac\flac.exe
Additional command line options : -8 -V -T "ARTIST=%a" -T "TITLE=%t" -T "ALBUM=%g" -T "DATE=%y" -T "TRACKNUMBER=%n" -T "GENRE=%m" -T "COMMENT=ripped by DrStandBy" %s
TOC of the extracted CD
Track | Start | Length | Start sector | End sector
---------------------------------------------------------
1 | 0:00.00 | 5:17.02 | 0 | 23776
2 | 5:17.02 | 2:46.70 | 23777 | 36296
3 | 8:03.72 | 1:58.13 | 36297 | 45159
4 | 10:02.10 | 3:45.12 | 45160 | 62046
5 | 13:47.22 | 2:45.03 | 62047 | 74424
6 | 16:32.25 | 2:09.37 | 74425 | 84136
7 | 18:41.62 | 3:57.38 | 84137 | 101949
8 | 22:39.25 | 4:48.55 | 101950 | 123604
9 | 27:28.05 | 3:50.35 | 123605 | 140889
10 | 31:18.40 | 2:09.32 | 140890 | 150596
11 | 33:27.72 | 4:38.70 | 150597 | 171516
12 | 38:06.67 | 1:46.00 | 171517 | 179466
13 | 39:52.67 | 2:49.23 | 179467 | 192164
14 | 42:42.15 | 4:40.00 | 192165 | 213164
15 | 47:22.15 | 2:31.25 | 213165 | 224514
16 | 49:53.40 | 2:54.15 | 224515 | 237579
17 | 52:47.55 | 5:33.32 | 237580 | 262586
Range status and errors
Selected range
Filename C:\My Music\Gary D\1997 - Gary D. - D.Trance 6\Various - Gary D. - D.Trance 06.wav
Peak level 99.5 %
Range quality 100.0 %
Test CRC 352D8376
Copy CRC 352D8376
Copy OK
No errors occurred
AccurateRip summary
Track 1 accurately ripped (confidence 5) [EB749668]
Track 2 accurately ripped (confidence 5) [B70B1644]
Track 3 accurately ripped (confidence 5) [1F202DC4]
Track 4 accurately ripped (confidence 5) [5254CA36]
Track 5 accurately ripped (confidence 5) [45BE8382]
Track 6 accurately ripped (confidence 5) [1E83CBF5]
Track 7 accurately ripped (confidence 5) [88F48062]
Track 8 accurately ripped (confidence 5) [D1BD242E]
Track 9 accurately ripped (confidence 5) [DF6FAA57]
Track 10 accurately ripped (confidence 5) [3C46A5CF]
Track 11 accurately ripped (confidence 5) [0FA385A5]
Track 12 accurately ripped (confidence 5) [AC3E2F72]
Track 13 accurately ripped (confidence 5) [8546980B]
Track 14 accurately ripped (confidence 5) [8F12D9DD]
Track 15 accurately ripped (confidence 5) [52BE5097]
Track 16 accurately ripped (confidence 5) [4609121F]
Track 17 accurately ripped (confidence 5) [FE6A9B6F]
All tracks accurately ripped
End of status report
Зарелизено на ********.org
Внимание! Торрент-файл перезалит без изменения содержимого раздачи в связи с просьбой администрации снять флаг "Приватная раздача". Скачавшим ранее просьба перекачать торрент-файл, перехешировать содержимое и присоединиться к раздаче.

If you like the topic, please click share to help develop our site.

To download the file disable ad blocking, and reload the page.

disable adblock How to disable ad blocking?

Download by magnet link 1.44 GB Download Torrent

Login using:

Similar topics



   
Current time is: 23-Jul 01:55 :: All times are UTC + 3