White Wing - White Wing
Жанр: Progressive Rock, Hard Rock
Носитель: CD
Страна-производитель диска (релиза): UK
Год издания: 1976 (2017)
Издатель (лейбл): Blood & Iron Records
Номер по каталогу: PROGAOR02
Страна исполнителя (группы): USA
Аудиокодек: FLAC (*.flac)
Тип рипа: image+.cue
Битрейт аудио: lossless
Продолжительность: 00:37:58
Источник (релизер): собственный рип
Наличие сканов в содержимом раздачи: да
Треклист:
01. Hansa (Cyngus)
02. Patent Leather
03. Slave
04. Wait Till Tomorrow
05. The White Ship
06. Harbinger
07. A Little Levity (A Satirical Salute)
08. Tuzashottama
09. Executive Privilege
10 Hansa (Aquila)

Лог создания рипа

Exact Audio Copy V1.1 from 23. June 2015
Отчёт EAC об извлечении, выполненном 6. ноября 2017, 14:19
White Wing / White Wing
Дисковод: ASUS DRW-24B3ST Adapter: 0 ID: 0
Режим чтения : Достоверность
Использование точного потока : Да
Отключение кэша аудио : Да
Использование указателей C2 : Нет
Коррекция смещения при чтении : 6
Способность читать области Lead-in и Lead-out : Нет
Заполнение пропущенных сэмплов тишиной : Да
Удаление блоков с тишиной в начале и конце : Нет
При вычислениях CRC использовались нулевые сэмплы : Да
Интерфейс : Установленный внешний ASPI-интерфейс
Выходной формат : Пользовательский кодировщик
Выбранный битрейт : 1024 kBit/s
Качество : Высокий
Добавление ID3-тега : Нет
Утилита сжатия : C:\Program Files (x86)\Exact Audio Copy\Flac\flac.exe
Дополнительные параметры : -V -8 -T "Date=%year%" -T "Genre=%genre%" %source%
TOC извлечённого CD
Трек | Старт | Длительность | Начальный сектор | Конечный сектор
---------------------------------------------------------------------
1 | 0:00.00 | 3:17.55 | 0 | 14829
2 | 3:17.55 | 6:41.72 | 14830 | 44976
3 | 9:59.52 | 3:17.63 | 44977 | 59814
4 | 13:17.40 | 4:26.05 | 59815 | 79769
5 | 17:43.45 | 4:11.29 | 79770 | 98623
6 | 21:54.74 | 3:48.37 | 98624 | 115760
7 | 25:43.36 | 4:41.55 | 115761 | 136890
8 | 30:25.16 | 1:14.65 | 136891 | 142505
9 | 31:40.06 | 4:20.27 | 142506 | 162032
10 | 36:00.33 | 1:57.64 | 162033 | 170871
Характеристики диапазона извлечения и сообщения об ошибках
Выбранный диапазон
Имя файла E:\Torrents\White Wing - 1976 - White Wing\White Wing - White Wing.wav
Пиковый уровень 100.0 %
Скорость извлечения 2.8 X
Качество диапазона 100.0 %
CRC теста C9EF4C0D
CRC копии C9EF4C0D
Копирование... OK
Ошибок не произошло
AccurateRip: сводка
Трек 1 отсутствует в базе данных
Трек 2 отсутствует в базе данных
Трек 3 отсутствует в базе данных
Трек 4 отсутствует в базе данных
Трек 5 отсутствует в базе данных
Трек 6 отсутствует в базе данных
Трек 7 отсутствует в базе данных
Трек 8 отсутствует в базе данных
Трек 9 отсутствует в базе данных
Трек 10 отсутствует в базе данных
Ни одного трека нет в базе AccurateRip
Конец отчёта
==== Контрольная сумма отчёта 7805FDD81C6F2E025B4094716A006483407A9ED5C2F35B56D1E5398DD131FBE8 ====

Замер динамического диапазона (DR)

foobar2000 1.3.16 / Замер динамического диапазона (DR) 1.1.1
Дата отчёта: 2017-11-06 14:26:18
--------------------------------------------------------------------------------
Анализ: White Wing / White Wing
--------------------------------------------------------------------------------
DR Пики RMS Продолжительность трека
--------------------------------------------------------------------------------
DR9 0.00 дБ -11.83 дБ 3:18 01-Hansa (Cygnus)
DR10 0.00 дБ -12.17 дБ 6:42 02-Patent Leather
DR9 0.00 дБ -10.64 дБ 3:18 03-Slave
DR11 0.00 дБ -13.30 дБ 4:26 04-Wait Till Tomorrow
DR11 0.00 дБ -11.86 дБ 4:11 05-The White Ship
DR11 0.00 дБ -12.47 дБ 3:48 06-Harbinger
DR11 0.00 дБ -13.57 дБ 4:42 07-A Little Levity (A Satirical Salute)
DR12 -2.38 дБ -17.92 дБ 1:15 08-Tuzashottama
DR8 0.00 дБ -11.44 дБ 4:20 09-Executive Privilege
DR9 -0.10 дБ -12.71 дБ 1:58 10-Hansa (Aquila)
--------------------------------------------------------------------------------
Количество треков: 10
Реальные значения DR: DR10
Частота: 44100 Гц
Каналов: 2
Разрядность: 16
Битрейт: 807 кбит/с
Кодек: FLAC
================================================================================

Об исполнителе (группе)

http://www.progarchives.com/artist.asp?id=7898

Состав

Mike Drew - vocals, organ
Rod Schroeder - vocals, guitars
Mike Coates - guitars
Gary Cass - bass
Norm Curtis - drums

If you like the topic, please click share to help develop our site.

To download the file disable ad blocking, and reload the page.

disable adblock How to disable ad blocking?

Download by magnet link 319 MB Download Torrent

Login using:

Similar topics

(Hard Rock/Progressive) Trellis - Outlier - 2019, MP3, 320 kbps
 137 MB   0 | 0   29-Jan-19 11:50   1


   
Current time is: 21-Feb 20:48 :: All times are UTC + 3