The Mystery Lights / The Mystery Lights
Жанр: Psychedelic Rock, Garage Rock
Носитель: CD
Страна-производитель диска (релиза): USA
Год издания: 2016
Издатель (лейбл): Wick Records
Номер по каталогу: Wick-001
Аудиокодек: FLAC (*.flac)
Тип рипа: image+.cue
Битрейт аудио: lossless
Продолжительность: 32:07
Источник (релизер): gssmg7
Наличие сканов в содержимом раздачи: нет
Треклист:
01. Intro
02. Follow Me Home
03. Flowers In My Hair, Demons In My Head
04. Too Many Girls
05. Without Me
06. Melt
07. Candlelight
08. 21 & Counting
09. Too Tough To Bear
10. Before My Own
11. What Happens When You Turn The Devil Down

Лог создания рипа

Exact Audio Copy V1.0 beta 2 from 29. April 2011
EAC extraction logfile from 5. November 2017, 1:38
The Mystery Lights / The Mystery Lights
Used drive : Optiarc DVD RW AD-5280S Adapter: 1 ID: 1
Read mode : Secure
Utilize accurate stream : Yes
Defeat audio cache : Yes
Make use of C2 pointers : No
Read offset correction : 48
Overread into Lead-In and Lead-Out : No
Fill up missing offset samples with silence : Yes
Delete leading and trailing silent blocks : No
Null samples used in CRC calculations : Yes
Used interface : Installed external ASPI interface
Used output format : User Defined Encoder
Selected bitrate : 128 kBit/s
Quality : High
Add ID3 tag : No
Command line compressor : C:\Program Files\FLAC\flac.exe
Additional command line options : -V -8 -T "Genre=%genre%" -T "Artist=%artist%" -T "Title=%title%" -T "Album=%albumtitle%" -T "Date=%year%" -T "Tracknumber=%tracknr%" -T "Comment=%comment%" %source%
TOC of the extracted CD
Track | Start | Length | Start sector | End sector
---------------------------------------------------------
1 | 0:00.00 | 1:05.32 | 0 | 4906
2 | 1:05.32 | 3:19.19 | 4907 | 19850
3 | 4:24.51 | 3:19.42 | 19851 | 34817
4 | 7:44.18 | 1:49.67 | 34818 | 43059
5 | 9:34.10 | 3:14.34 | 43060 | 57643
6 | 12:48.44 | 2:38.51 | 57644 | 69544
7 | 15:27.20 | 3:15.71 | 69545 | 84240
8 | 18:43.16 | 3:05.07 | 84241 | 98122
9 | 21:48.23 | 3:26.53 | 98123 | 113625
10 | 25:15.01 | 2:40.54 | 113626 | 125679
11 | 27:55.55 | 4:11.61 | 125680 | 144565
Range status and errors
Selected range
Filename C:\The Mystery Lights (2016) - The Mystery Lights\The Mystery Lights (2016) - The Mystery Lights.wav
Peak level 96.7 %
Extraction speed 3.5 X
Range quality 100.0 %
Test CRC 28571689
Copy CRC 28571689
Copy OK
No errors occurred
AccurateRip summary
Track 1 accurately ripped (confidence 3) [471EEFC4] (AR v2)
Track 2 accurately ripped (confidence 3) [ED36E6B8] (AR v2)
Track 3 accurately ripped (confidence 4) [6CA5A42F] (AR v2)
Track 4 accurately ripped (confidence 4) [4E2E3326] (AR v2)
Track 5 accurately ripped (confidence 4) [B3F62797] (AR v2)
Track 6 accurately ripped (confidence 4) [B78A8611] (AR v2)
Track 7 accurately ripped (confidence 4) [C06344D4] (AR v2)
Track 8 accurately ripped (confidence 4) [A7784974] (AR v2)
Track 9 accurately ripped (confidence 4) [FFEBA6BD] (AR v2)
Track 10 accurately ripped (confidence 4) [B4795465] (AR v2)
Track 11 accurately ripped (confidence 4) [D5A3CBEA] (AR v2)
All tracks accurately ripped
End of status report
==== Log checksum FE02FD685BB79F76BD4079E2AE2A37B930A02AEECAD22893583C8FD5A76BAF9F ====

Содержание индексной карты (.CUE)

REM GENRE "Psychedelic Rock"
REM DATE 2016
REM DISCID 9207870B
REM COMMENT "ExactAudioCopy v1.0b2"
PERFORMER "The Mystery Lights"
TITLE "The Mystery Lights"
FILE "The Mystery Lights (2016) - The Mystery Lights.flac" WAVE
TRACK 01 AUDIO
TITLE "Intro"
PERFORMER "The Mystery Lights"
INDEX 01 00:00:00
TRACK 02 AUDIO
TITLE "Follow Me Home"
PERFORMER "The Mystery Lights"
INDEX 01 01:05:32
TRACK 03 AUDIO
TITLE "Flowers In My Hair, Demons In My Head"
PERFORMER "The Mystery Lights"
INDEX 01 04:24:51
TRACK 04 AUDIO
TITLE "Too Many Girls"
PERFORMER "The Mystery Lights"
INDEX 01 07:44:18
TRACK 05 AUDIO
TITLE "Without Me"
PERFORMER "The Mystery Lights"
INDEX 01 09:34:10
TRACK 06 AUDIO
TITLE "Melt"
PERFORMER "The Mystery Lights"
INDEX 01 12:48:44
TRACK 07 AUDIO
TITLE "Candlelight"
PERFORMER "The Mystery Lights"
INDEX 01 15:27:20
TRACK 08 AUDIO
TITLE "21 & Counting"
PERFORMER "The Mystery Lights"
INDEX 01 18:43:16
TRACK 09 AUDIO
TITLE "Too Tough To Bear"
PERFORMER "The Mystery Lights"
INDEX 01 21:48:23
TRACK 10 AUDIO
TITLE "Before My Own"
PERFORMER "The Mystery Lights"
INDEX 01 25:15:01
TRACK 11 AUDIO
TITLE "What Happens When You Turn The Devil Down"
PERFORMER "The Mystery Lights"
INDEX 01 27:55:55

Об альбоме (сборнике)

In the 1950s, while Chess Records was churning out Muddy Waters LPs, its in-house subsidiary imprint Checker was putting out rock'n'roll hits by Bo Diddley and Dale Hawkins. In the 1970s, while Stax was raking in Isaac Hayes' “Theme From Shaft” money, the label was also distributing Big Star's #1 Record. There's practically a blueprint in place for Daptone and its new imprint, Wick, through which the gold standard soul institution will start shilling rock music. They're planning records from proven garage rock entities like Mark Sultan and the Ar-Kaics, but the label's proper introduction is the debut album from the Mystery Lights. The word Nuggets immediately comes to mind with the Brooklyn band's sound on “Follow Me Home” and not just because the Mystery Lights literally become sunflower people in the song's music video. The tape-effect psychedelia is impressive, and thanks to the persistent bass drone, measured. The guitar tone is authoritative (and decidedly retro). There's a stoned, analog atmosphere hanging over everything, but there's a fire and toughness, too. Frontman Mike Brandon turns in an impressive, assertive performance. Throwback can be wishy washy, resting on the laurels of its nostalgic merits without fully delivering the goods. Brandon, like Charles Bradley and Sharon Jones before him, performs with a power and vigor that keeps him undeniable. This is what Daptone does: vintage hit-writing techniques, powerhouse performances. ~ pitchfork.com
In an era when the city kvetches that there are no good NYC bands, when half of the music scene has split for sunny California, the Mystery Lights are an anomaly. Not only did these bold young men reverse the direction – optimistically migrating east against the tide from the west coast, but they also landed in the wormy apple to immerse themselves in the action and diversity of New York City. They all share an apartment in Ridgewood, Queens – the basement of which they’ve converted into a makeshift rehearsal space. Betting against the odds to live the archetypical 20th century downtown musician lifestyle in 2016, though inevitably further east of the bridge, they also play with the kind of conviction, immediacy, and raw power of their mighty ancestors – from the Velvets to the Voidoids and beyond. The Mystery Lights are living proof that vital contemporary music, in this case real-deal rock’n’roll, can still be dreamed, constructed, and performed in the Empire City. Mike Brandon and L.A. Solano have been in many different versions of The Mystery Lights under assorted monikers since their teens. In a heroic jump from the small town of Salinas, California to NYC, the band solidified its lineup to also include Alex Amini, Kevin Harris, and Noah Kohll. The explosive live shows gradually became the stuff of legend as the quintet won their following one fan at a time in dives from Brooklyn to the Bowery. Organically unfolding over the nights months and years, the Lights’ sound has evolved into a fuzz-fueled hopped-up 21st Century take on 60s garage pebbles, and artful 70s punk, that is all their own. 2016 found these rock’n’roll knights embarking upon the next logical step – unleashing their own brand of kick out the jams on tour and in the studio. When Daptone Records launched their Wick Records rock imprint, they wasted no time approaching Mystery Lights as their inaugural act.owned and run, as much as we see our reflection in the sound of bygone powerhouses like Stax and Motown, we also feel special empathy and affection for the smaller independent soul artist and effort. Daptone owes a special debt and feels a warm kinship to the example and aesthetic of these past artists and their recordings. So, Daptone goes forward, anxious to use this new arm of our company to tell the story of some of Soulful music’s little known sounds that continue to guide us today. ~ daptonerecords.com

Состав

M. Brandon - guitar, vocals
L.A. Solano - guitar
A. Amini - bass
N. Pillot - drums
K. Harris - organ

If you like the topic, please click share to help develop our site.

To download the file disable ad blocking, and reload the page.

disable adblock How to disable ad blocking?

Download by magnet link 206 MB Download Torrent

Login using:

Similar topics

(Psychedelic Rock) The Desert Furs - Soluble - 2019, MP3, 320 kbps
 97 MB   0 | 0   14-Apr-19 19:00   2


   
Current time is: 20-Apr 05:50 :: All times are UTC + 3