In Extremo / Quid Pro Quo (2CD)
Жанр: Folk Metal, Heavy Metal, Celtic Metal
Носитель: CD
Страна-производитель диска (релиза): EU
Год издания: 2016
Издатель (лейбл): Universal Music Group, Vertigo
Номер по каталогу: 0602547949431
Страна исполнителя (группы): Germany
Аудиокодек: FLAC (*.flac)
Тип рипа: image+.cue
Битрейт аудио: lossless
Продолжительность: 53:23+35:28
Источник (релизер): mediaboom
Наличие сканов в содержимом раздачи: да
Треклист:

CD1


01. Stortebeker
02. Roter Stern (feat. Hansi Kursch)
03. Quid Pro Quo
04. Pikse Palve
05. Lieb Vaterland, Magst Ruhig Sein
06. Flaschenteufel (feat. Heaven Shall Burn)
07. Dacw' Nghariad
08. Moonshiner
09. Gluck Auf Erden
10. Чёрный Ворон (Schwarzer Rabe)
11. Sternhagelvoll
12. Wenn Das Licht Angeht
13. Palastinalied 2
14. Quid Pro Quo

Лог создания рипа

Exact Audio Copy V1.1 from 23. June 2015
EAC extraction logfile from 23. June 2016, 13:38
In Extremo / Quid Pro Quo
Used drive : HP DVD Writer 1170d Adapter: 1 ID: 1
Read mode : Secure
Utilize accurate stream : Yes
Defeat audio cache : Yes
Make use of C2 pointers : No
Read offset correction : 6
Overread into Lead-In and Lead-Out : No
Fill up missing offset samples with silence : Yes
Delete leading and trailing silent blocks : No
Null samples used in CRC calculations : Yes
Used interface : Native Win32 interface for Win NT & 2000
Used output format : User Defined Encoder
Selected bitrate : 1024 kBit/s
Quality : Low
Add ID3 tag : No
Command line compressor : C:\Program Files (x86)\Exact Audio Copy\FLAC\FLAC.EXE
Additional command line options : -V -8 -T "Date=%year%" -T "Genre=%genre%" -T"COMMENT=Ripped by Ungern666" -8 -V %source%
TOC of the extracted CD
Track | Start | Length | Start sector | End sector
---------------------------------------------------------
1 | 0:00.00 | 3:34.10 | 0 | 16059
2 | 3:34.10 | 3:31.73 | 16060 | 31957
3 | 7:06.08 | 3:05.48 | 31958 | 45880
4 | 10:11.56 | 3:41.13 | 45881 | 62468
5 | 13:52.69 | 5:16.14 | 62469 | 86182
6 | 19:09.08 | 4:21.44 | 86183 | 105801
7 | 23:30.52 | 4:18.04 | 105802 | 125155
8 | 27:48.56 | 4:11.63 | 125156 | 144043
9 | 32:00.44 | 2:54.19 | 144044 | 157112
10 | 34:54.63 | 3:44.23 | 157113 | 173935
11 | 38:39.11 | 4:02.71 | 173936 | 192156
12 | 42:42.07 | 3:25.74 | 192157 | 207605
13 | 46:08.06 | 3:48.34 | 207606 | 224739
14 | 49:56.40 | 3:27.28 | 224740 | 240292
Range status and errors
Selected range
Filename C:\EAC\Ungern666\In Extremo - Quid Pro Quo.wav
Peak level 98.8 %
Extraction speed 5.6 X
Range quality 99.9 %
Test CRC 34169EB5
Copy CRC 34169EB5
Copy OK
No errors occurred
AccurateRip summary
Track 1 not present in database
Track 2 not present in database
Track 3 not present in database
Track 4 not present in database
Track 5 not present in database
Track 6 not present in database
Track 7 not present in database
Track 8 not present in database
Track 9 not present in database
Track 10 not present in database
Track 11 not present in database
Track 12 not present in database
Track 13 not present in database
Track 14 not present in database
None of the tracks are present in the AccurateRip database
End of status report
---- CUETools DB Plugin V2.1.6
[CTDB TOCID: xJbIbumKWJBLxJh_lzFRqeuA8gY-] disk not present in database
Submit result: xJbIbumKWJBLxJh_lzFRqeuA8gY- has been uploaded
==== Log checksum 8E8DF376966F8EA7AB8127FC3401BAEE86FA3B58D63A92F21CFD03E9400DC6FA ====

Содержание индексной карты (.CUE)

REM DATE 2016
REM DISCID B40C830E
REM COMMENT "ExactAudioCopy v1.1"
PERFORMER "In Extremo"
TITLE "Quid Pro Quo"
FILE "In Extremo - Quid Pro Quo.flac" WAVE
TRACK 01 AUDIO
TITLE "Stortebeker"
PERFORMER "In Extremo"
INDEX 01 00:00:00
TRACK 02 AUDIO
TITLE "Roter Stern (feat. Hansi Kursch)"
PERFORMER "In Extremo"
INDEX 01 03:34:10
TRACK 03 AUDIO
TITLE "Quid Pro Quo"
PERFORMER "In Extremo"
INDEX 01 07:06:08
TRACK 04 AUDIO
TITLE "Pikse Palve"
PERFORMER "In Extremo"
INDEX 01 10:11:56
TRACK 05 AUDIO
TITLE "Lieb Vaterland, Magst Ruhig Sein"
PERFORMER "In Extremo"
INDEX 01 13:52:69
TRACK 06 AUDIO
TITLE "Flaschenteufel (feat. Heaven Shall Burn)"
PERFORMER "In Extremo"
INDEX 01 19:09:08
TRACK 07 AUDIO
TITLE "Dacw 'Nghariad"
PERFORMER "In Extremo"
INDEX 01 23:30:52
TRACK 08 AUDIO
TITLE "Moonshiner"
PERFORMER "In Extremo"
INDEX 01 27:48:56
TRACK 09 AUDIO
TITLE "Gluck Auf Erden"
PERFORMER "In Extremo"
INDEX 01 32:00:44
TRACK 10 AUDIO
TITLE "Schwarzer Rabe"
PERFORMER "In Extremo"
INDEX 01 34:54:63
TRACK 11 AUDIO
TITLE "Sternhagelvoll"
PERFORMER "In Extremo"
INDEX 01 38:39:11
TRACK 12 AUDIO
TITLE "Wenn Das Licht Angeht"
PERFORMER "In Extremo"
INDEX 01 42:42:07
TRACK 13 AUDIO
TITLE "Palastinalied 2"
PERFORMER "In Extremo"
INDEX 01 46:08:06
TRACK 14 AUDIO
TITLE "Quid Pro Quo (Akustik Version)"
PERFORMER "In Extremo"
INDEX 01 49:56:40

CD2- live


01. Siehst Du Das Licht
02. Lebensbeichte
03. Nur Ihr Allein
04. In Diesem Licht
05. Frei Zu Sein
06. Kuss Mich
07. Gaukler
08. Feuertaufe

Лог создания рипа

Exact Audio Copy V1.1 from 23. June 2015
EAC extraction logfile from 23. June 2016, 13:13
In Extremo / 20 Wahre Jahre - Die Schifffahrt - Live
Used drive : HP DVD Writer 1170d Adapter: 1 ID: 1
Read mode : Secure
Utilize accurate stream : Yes
Defeat audio cache : Yes
Make use of C2 pointers : No
Read offset correction : 6
Overread into Lead-In and Lead-Out : No
Fill up missing offset samples with silence : Yes
Delete leading and trailing silent blocks : No
Null samples used in CRC calculations : Yes
Used interface : Native Win32 interface for Win NT & 2000
Used output format : User Defined Encoder
Selected bitrate : 1024 kBit/s
Quality : Low
Add ID3 tag : No
Command line compressor : C:\Program Files (x86)\Exact Audio Copy\FLAC\FLAC.EXE
Additional command line options : -V -8 -T "Date=%year%" -T "Genre=%genre%" -T"COMMENT=Ripped by Ungern666" -8 -V %source%
TOC of the extracted CD
Track | Start | Length | Start sector | End sector
---------------------------------------------------------
1 | 0:00.00 | 4:10.65 | 0 | 18814
2 | 4:10.65 | 4:36.64 | 18815 | 39578
3 | 8:47.54 | 4:58.72 | 39579 | 62000
4 | 13:46.51 | 4:39.35 | 62001 | 82960
5 | 18:26.11 | 3:49.18 | 82961 | 100153
6 | 22:15.29 | 4:38.58 | 100154 | 121061
7 | 26:54.12 | 4:07.10 | 121062 | 139596
8 | 31:01.22 | 4:26.72 | 139597 | 159618
Range status and errors
Selected range
Filename C:\EAC\Ungern666\In Extremo - 20 Wahre Jahre - Die Schifffahrt - Live.wav
Peak level 98.8 %
Extraction speed 6.4 X
Range quality 100.0 %
Test CRC 760140CB
Copy CRC 760140CB
Copy OK
No errors occurred
AccurateRip summary
Track 1 not present in database
Track 2 not present in database
Track 3 not present in database
Track 4 not present in database
Track 5 not present in database
Track 6 not present in database
Track 7 not present in database
Track 8 not present in database
None of the tracks are present in the AccurateRip database
End of status report
---- CUETools DB Plugin V2.1.6
[CTDB TOCID: iK51MTZrO3s0Jl4FWPYADXnOmJY-] disk not present in database
Submit result: iK51MTZrO3s0Jl4FWPYADXnOmJY- has been uploaded
==== Log checksum 6BE4CA96ED028B0849DA5C13D061F3C3A6068213CF3AE1D68D39AF25E0D8434C ====

Содержание индексной карты (.CUE)

REM DATE 2016
REM DISCID 65085008
REM COMMENT "ExactAudioCopy v1.1"
PERFORMER "In Extremo"
TITLE "20 Wahre Jahre - Die Schifffahrt - Live"
FILE "In Extremo - 20 Wahre Jahre - Die Schifffahrt - Live.flac" WAVE
TRACK 01 AUDIO
TITLE "Siehst Du Das Licht"
PERFORMER "In Extremo"
INDEX 01 00:00:00
TRACK 02 AUDIO
TITLE "Lebensbeichte"
PERFORMER "In Extremo"
INDEX 01 04:10:65
TRACK 03 AUDIO
TITLE "Nur Ihr Allein"
PERFORMER "In Extremo"
INDEX 01 08:47:54
TRACK 04 AUDIO
TITLE "In Diesem Licht"
PERFORMER "In Extremo"
INDEX 01 13:46:51
TRACK 05 AUDIO
TITLE "Frei Zu Sein"
PERFORMER "In Extremo"
INDEX 01 18:26:11
TRACK 06 AUDIO
TITLE "Kuss Mich"
PERFORMER "In Extremo"
INDEX 01 22:15:29
TRACK 07 AUDIO
TITLE "Gaukler"
PERFORMER "In Extremo"
INDEX 01 26:54:12
TRACK 08 AUDIO
TITLE "Feuertaufe"
PERFORMER "In Extremo"
INDEX 01 31:01:22

If you like the topic, please click share to help develop our site.

To download the file disable ad blocking, and reload the page.

disable adblock How to disable ad blocking?

Download by magnet link 741 MB Download Torrent

Login using:

Similar topics



   
Current time is: 22-Apr 09:00 :: All times are UTC + 3