- Море жизни / The Sea Of Life (2015) SATRip - Производство: Испания, Takeaway Films
Жанр: Документальный, природа, флора, фауна
Режиссер: Моника Гонсалес
Описание:
Связь человечества с водной стихией крепче, чем кажется. Все живое вышло из морской воды. Все мы – дети моря. Оно было и остается источником жизни, пищи, лекарств и энергии. В подводном мире обитают миллионы удивительных созданий, и все они важны для существования огромной экосистемы.
Многие островные государства принимают эффективные меры по сохранению окружающей среды, и благодаря этому мы можем любоваться чудесами природы на Большом Барьерном рифе и Молуккских островах, на архипелагах Фиджи и Палау.
Релиз от: Mersicc
Продолжительность: 00:51:53
Качество видео: SATRip
Перевод: Одноголосый закадровый, профессиональный (СВ-Дубль)
Субтитры: отсутствуют
Видео: Xvid, 704 x 400, ~1759 Kbps
Аудио: MP3, 2 ch, 128 kbps

Mediainfo:

Общее
Полное имя : F:\КИНО\Море жизни.avi
Формат : AVI
Формат/Информация : Audio Video Interleave
Размер файла : 704 Мбайт
Продолжительность : 51 м. 53 с.
Общий поток : 1897 Кбит/сек
Программа кодирования : VirtualDubMod 1.5.10.2 (build 2540/release)
Библиотека кодирования : VirtualDubMod build 2540/release
Видео
Идентификатор : 0
Формат : MPEG-4 Visual
Профиль формата : Advanced [email protected]
Настройки формата : BVOP1
Параметр BVOP формата : 1
Параметр QPel формата : Нет
Параметр GMC формата : Без точки перехода
Параметр матрицы формата : Default (MPEG)
Идентификатор кодека : XVID
Идентификатор кодека/Подсказка : XviD
Продолжительность : 51 м. 53 с.
Битрейт : 1759 Кбит/сек
Ширина : 704 пикселя
Высота : 400 пикселей
Соотношение сторон : 16:9
Частота кадров : 25,000 кадров/сек
Цветовое пространство : YUV
Субдискретизация насыщенности : 4:2:0
Битовая глубина : 8 бит
Тип развёртки : Прогрессивная
Метод сжатия : С потерями
Бит/(Пиксели*Кадры) : 0.250
Размер потока : 653 Мбайт (93%)
Библиотека кодирования : XviD 1.2.1 (UTC 2008-12-04)
Аудио
Идентификатор : 1
Формат : MPEG Audio
Версия формата : Version 1
Профиль формата : Layer 3
Идентификатор кодека : 55
Идентификатор кодека/Подсказка : MP3
Продолжительность : 51 м. 53 с.
Вид битрейта : Постоянный
Битрейт : 128 Кбит/сек
Каналы : 2 канала
Частота : 48,0 КГц
Метод сжатия : С потерями
Размер потока : 47,5 Мбайт (7%)
Выравнивание : Соединение по промежуткам
Продолжительность промежутка : 40 мс. (1,00 видеокадр)
Время предзагрузки промежутка : 504 мс.
Скриншоты:

Дополнительные скриншоты:

Все одноименные релизы в КлубеВремя раздачи: с 18:00 до 23:00 (до появления первых 3-5 скачавших)

If you like the topic, please click share to help develop our site.

To download the file disable ad blocking, and reload the page.

disable adblock How to disable ad blocking?

Download by magnet link 704 MB Download Torrent

Login using:

Similar topics



   
Current time is: 21-Feb 20:50 :: All times are UTC + 3