- Рысь: Неуловимый охотник / Lynx: The Elusive Hunter (2003) SATRip - Телекомпания: Nature
Жанр: Документальный
Участники: Бо Лэндин
Описание:
Фильм рассказывает о жизни обитающих в лесах Европы неуловимых диких кошках. Когда-то рыси встречались во всех лесах Европы. Cегодня они находятся под угрозой вымирания и встречаются только в некоторых регионах. В Скандинавии их больше всего, и в целом, за последние годы их численность выросла. Этот факт, в свою очередь, стал причиной новой волны страха перед этими животными и аргессии человека по отношению к ним.
Продолжительность: 00:50:30
Качество видео: SATRip
Перевод: Дублированный
Субтитры: Отсутствуют
Видео: Xvid, 640x480, ~1246 Kbps
Аудио: MP3, 2 ch, 128 Kbps

Mediainfo:

Общее
Полное имя : C:\Downloads\Рысь - Неуловимый охотник (2003).avi
Формат : AVI
Формат/Информация : Audio Video Interleave
Размер файла : 499 Мбайт
Продолжительность : 50 м. 30 с.
Общий поток : 1382 Кбит/сек
Программа кодирования : VirtualDubMod 1.5.4.1 (build 2178/release)
Библиотека кодирования : VirtualDubMod build 2178/release
Видео
Идентификатор : 0
Формат : MPEG-4 Visual
Профиль формата : Advanced [email protected]
Настройки формата : BVOP1 / Custom Matrix
Параметр BVOP формата : 1
Параметр QPel формата : Нет
Параметр GMC формата : Без точки перехода
Параметр матрицы формата : Выборочная
Идентификатор кодека : XVID
Идентификатор кодека/Подсказка : XviD
Продолжительность : 50 м. 30 с.
Битрейт : 1246 Кбит/сек
Ширина : 640 пикселей
Высота : 480 пикселей
Соотношение сторон : 4:3
Частота кадров : 25,000 кадров/сек
Цветовое пространство : YUV
Субдискретизация насыщенности : 4:2:0
Битовая глубина : 8 бит
Тип развёртки : Прогрессивная
Метод сжатия : С потерями
Бит/(Пиксели*Кадры) : 0.162
Размер потока : 450 Мбайт (90%)
Библиотека кодирования : XviD 1.2.1 (UTC 2008-12-04)
Аудио
Идентификатор : 1
Формат : MPEG Audio
Версия формата : Version 1
Профиль формата : Layer 3
Настройки формата : Joint stereo / MS Stereo
Режим : Joint stereo
Расширение режима : MS Stereo
Идентификатор кодека : 55
Идентификатор кодека/Подсказка : MP3
Продолжительность : 50 м. 30 с.
Вид битрейта : Постоянный
Битрейт : 128 Кбит/сек
Каналы : 2 канала
Частота : 48,0 КГц
Метод сжатия : С потерями
Размер потока : 46,2 Мбайт (9%)
Выравнивание : Соединение по промежуткам
Продолжительность промежутка : 80 мс. (2,00 видеокадра)
Время предзагрузки промежутка : 504 мс.
Библиотека кодирования : LAME3.98.2ЄЄЄЄЄЄЄЄЄЄ
Скриншоты:

Дополнительные скриншоты:

Все одноименные релизы в КлубеВремя раздачи: 24/7 (до появления первых 3-5 скачавших)

If you like the topic, please click share to help develop our site.

To download the file disable ad blocking, and reload the page.

disable adblock How to disable ad blocking?

Download by magnet link 499 MB Download Torrent

Login using:

Similar topics

Живые воды / Living waters (2015) HDRip [H.264/1080p-LQ] [VO]
 1.9 GB   4 | 1   13-Nov-18 00:40   6


   
Current time is: 21-Feb 21:28 :: All times are UTC + 3