- Пульс Атлантического леса / The pulse of the atlantic forest (2016) SATRip - Производство: Бразилия, Великобритания , TicoTico films
Жанр: Документальный, природа, флора, фауна
Режиссер: Рафаэль Гваделуппэ
Описание:
Атлантический лес некогда был одним из величайших тропических лесных массивов в мире. Он занимал площадь в один миллион триста тысяч квадратных километров, но сегодня от его былой территории осталось лишь восемь процентов. Поэтому данная экосистема признана одной из наиболее пострадавших в мире.
Несмотря на огромный ущерб, сохранившаяся территория Атлантического леса до сих пор отличается самым большим разнообразием флоры и фауны на планете. С точки зрения специалистов, лес является одной из самых важных территорий, позволяющих сохранить биологическое разнообразие земли.
Релиз от: Mersicc
Продолжительность: 00:57:01
Качество видео: SATRip
Перевод: Дублированный (СВ-Дубль)
Субтитры: отсутствуют
Видео: Xvid, 720 x 408, ~1 896 Kbps
Аудио: MP3, 2 ch, 128 Kbps

Mediainfo:

Общее
Полное имя : F:\КИНО\Пульс Атлантического леса.avi
Формат : AVI
Формат/Информация : Audio Video Interleave
Размер файла : 830 Мбайт
Продолжительность : 57 м. 1 с.
Общий поток : 2034 Кбит/сек
Программа кодирования : VirtualDubMod 1.5.10.2 (build 2540/release)
Библиотека кодирования : VirtualDubMod build 2540/release
Видео
Идентификатор : 0
Формат : MPEG-4 Visual
Профиль формата : Advanced [email protected]
Настройки формата : BVOP1
Параметр BVOP формата : 1
Параметр QPel формата : Нет
Параметр GMC формата : Без точки перехода
Параметр матрицы формата : Default (MPEG)
Идентификатор кодека : XVID
Идентификатор кодека/Подсказка : XviD
Продолжительность : 57 м. 1 с.
Битрейт : 1896 Кбит/сек
Ширина : 720 пикселей
Высота : 408 пикселей
Соотношение сторон : 16:9
Частота кадров : 25,000 кадров/сек
Цветовое пространство : YUV
Субдискретизация насыщенности : 4:2:0
Битовая глубина : 8 бит
Тип развёртки : Прогрессивная
Метод сжатия : С потерями
Бит/(Пиксели*Кадры) : 0.258
Размер потока : 773 Мбайт (93%)
Библиотека кодирования : XviD 1.2.1 (UTC 2008-12-04)
Аудио
Идентификатор : 1
Формат : MPEG Audio
Версия формата : Version 1
Профиль формата : Layer 3
Идентификатор кодека : 55
Идентификатор кодека/Подсказка : MP3
Продолжительность : 57 м. 1 с.
Вид битрейта : Постоянный
Битрейт : 128 Кбит/сек
Каналы : 2 канала
Частота : 48,0 КГц
Метод сжатия : С потерями
Размер потока : 52,2 Мбайт (6%)
Выравнивание : Соединение по промежуткам
Продолжительность промежутка : 40 мс. (1,00 видеокадр)
Время предзагрузки промежутка : 504 мс.
Библиотека кодирования : LAME3.99.5ЄЄЄЄЄЄ¤гI
Скриншоты:

Дополнительные скриншоты:

Все одноименные релизы в КлубеВремя раздачи: с 18:00 до 23:00 (до появления первых 3-5 скачавших)

If you like the topic, please click share to help develop our site.

To download the file disable ad blocking, and reload the page.

disable adblock How to disable ad blocking?

Download by magnet link 830 MB Download Torrent

Login using:

Similar topics

Живые воды / Living waters (2015) HDRip [H.264/1080p-LQ] [VO]
 1.9 GB   0 | 1   13-Nov-18 00:40   6


   
Current time is: 22-Apr 09:00 :: All times are UTC + 3