- Австралия: путешествие сквозь эволюцию / Australia - A Journey Through Evolution (2014) DVB [H.264/720p-LQ] - Производство: Испания, Explora Films
Жанр: Документальный, познавательный, путешествия
Режиссер: Лаура Касамайор Дел Ринкон
Описание:
В результате отделения Австралии от основного континента миллионы лет назад, остров оказался изолирован океаном. Благодаря такому особому расположению материка и его отдаленности от других земель, а также большому разнообразию погодных условий в Австралии развивалась своя собственная, совершенно особенная экосистема, эволюционировавшая на протяжении многих миллиардов лет. Фильм рассказывает о том, какие изменения претерпела живая природа Австралии в течение 35 миллионов лет.
Релиз от: skorpionN
Продолжительность: 00:51:56
Качество видео: DVB
Перевод: Одноголосый закадровый, профессиональный (SDI Media)
Видео: AVC/H.264, 1280x720, ~8312 Kbps
Аудио#1: MP2, 2 ch, 192 Kbps | Русский (перевод Татьяны Вишневской, текст читает Юрий Большаков)
Аудио#2: MP2, 2 ch, 192 Kbps | Английский

Mediainfo:

Общее
Идентификатор : 1 (0x1)
Полное имя : F:\КИНО\Australia_ A Journey Through Evolution.ts
Формат : MPEG-TS
Размер файла : 3,32 Гбайт
Продолжительность : 51 м. 56 с.
Режим общего битрейта : Переменный
Общий поток : 9152 Кбит/сек
Видео
Идентификатор : 4113 (0x1011)
Идентификатор меню : 1 (0x1)
Формат : AVC
Формат/Информация : Advanced Video Codec
Профиль формата : [email protected]
Настройки формата : CABAC / 5 Ref Frames
Параметр CABAC формата : Да
Параметр RefFrames формата : 5 кадров
Параметр GOP формата : M=8, N=64
Идентификатор кодека : 27
Продолжительность : 51 м. 56 с.
Вид битрейта : Переменный
Битрейт : 8312 Кбит/сек
Максимальный битрейт : 40,0 Мбит/сек
Ширина : 1280 пикселей
Высота : 720 пикселей
Соотношение сторон : 16:9
Частота кадров : 50,000 кадров/сек
Стандарт вещания : Component
Цветовое пространство : YUV
Субдискретизация насыщенности : 4:2:0
Битовая глубина : 8 бит
Тип развёртки : Прогрессивная
Бит/(Пиксели*Кадры) : 0.180
Размер потока : 3,02 Гбайт (91%)
Цветовой диапазон : Limited
Основные цвета : BT.709
Характеристики трансфера : BT.709
Коэффициенты матрицы : BT.709
Аудио #1
Идентификатор : 4352 (0x1100)
Идентификатор меню : 1 (0x1)
Формат : MPEG Audio
Версия формата : Version 1
Профиль формата : Layer 2
Идентификатор кодека : 3
Продолжительность : 51 м. 56 с.
Вид битрейта : Постоянный
Битрейт : 192 Кбит/сек
Каналы : 2 канала
Частота : 48,0 КГц
Метод сжатия : С потерями
Задержка видео : -60 мс.
Размер потока : 71,3 Мбайт (2%)
Язык : Russian
Аудио #2
Идентификатор : 4353 (0x1101)
Идентификатор меню : 1 (0x1)
Формат : MPEG Audio
Версия формата : Version 1
Профиль формата : Layer 2
Идентификатор кодека : 3
Продолжительность : 51 м. 56 с.
Вид битрейта : Постоянный
Битрейт : 192 Кбит/сек
Каналы : 2 канала
Частота : 48,0 КГц
Метод сжатия : С потерями
Задержка видео : -60 мс.
Размер потока : 71,3 Мбайт (2%)
Язык : English
Скриншоты:

Дополнительные скриншоты:

Все одноименные релизы в КлубеВремя раздачи: с 18:00 до 23:00 (до появления первых 3-5 скачавших)

If you like the topic, please click share to help develop our site.

To download the file disable ad blocking, and reload the page.

disable adblock How to disable ad blocking?

Download by magnet link 3.32 GB Download Torrent

Login using:

Similar topics



   
Current time is: 18-Jul 11:55 :: All times are UTC + 3