- Австралия приют для птиц / Australia a haven for Birds (2013) SATRip [H.264] [UKR] - Производство: V.A.N. video producciones
Жанр: Документальный, Природа, Фауна
Режиссер: Tam Milligan
Описание:
Документальный фильм о Фауне Австралии.
Продолжительность: 00:22:29
Качество видео: SATRip
Перевод: Отсутствует
Язык озвучки: Украинский
Субтитры: Отсутствуют
Видео: AVC/H.264, 704x576, ~1872 kb/s
Аудио: MP2, 2 ch, 192 kb/s

Mediainfo:

General
ID : 1 (0x1)
Complete name : Австралия Приют для птиц(Australia A haven for Birds).ts
Format : MPEG-TS
File size : 350 MiB
Duration : 22 min 29 s
Overall bit rate mode : Variable
Overall bit rate : 2 174 kb/s
Video
ID : 7161 (0x1BF9)
Menu ID : 7716 (0x1E24)
Format : AVC
Format/Info : Advanced Video Codec
Format profile : [email protected]
Format settings, CABAC : Yes
Format settings, RefFrames : 4 frames
Codec ID : 27
Duration : 22 min 29 s
Bit rate : 1 872 kb/s
Width : 704 pixels
Height : 576 pixels
Display aspect ratio : 16:9
Frame rate : 25.000 FPS
Standard : PAL
Color space : YUV
Chroma subsampling : 4:2:0
Bit depth : 8 bits
Scan type : MBAFF
Scan type, store method : Interleaved fields
Scan order : Top Field First
Bits/(Pixel*Frame) : 0.185
Stream size : 301 MiB (86%)
Color range : Limited
Color primaries : BT.601 PAL
Transfer characteristics : BT.470 System B, BT.470 System G
Matrix coefficients : BT.470 System B, BT.470 System G
Audio
ID : 7162 (0x1BFA)
Menu ID : 7716 (0x1E24)
Format : MPEG Audio
Format version : Version 1
Format profile : Layer 2
Codec ID : 3
Duration : 22 min 29 s
Bit rate mode : Constant
Bit rate : 192 kb/s
Channel(s) : 2 channels
Sampling rate : 48.0 kHz
Compression mode : Lossy
Stream size : 30.9 MiB (9%)
Language : Ukrainian
Скриншоты:

Дополнительные скриншоты:

Все одноименные релизы в КлубеВремя раздачи: 24/7 по возможности. (до появления первых 3-5 скачавших)

If you like the topic, please click share to help develop our site.

To download the file disable ad blocking, and reload the page.

disable adblock How to disable ad blocking?

Download by magnet link 350 MB Download Torrent

Login using:

Similar topics

Живые воды / Living waters (2015) HDRip [H.264/1080p-LQ] [VO]
 1.9 GB   0 | 1   13-Nov-18 00:40   6


   
Current time is: 22-Apr 09:34 :: All times are UTC + 3