- Насекомые, или миллиметровый мир / Insects. The World of Millimeters (2014) HDTVRip (серии 1-2 из 2) - Производство: Южная Корея, EBS
Жанр: Документальный, познавательный, флора, фауна
Режиссер: Gyu-Seop KIM, Hyeon-Sang SIN
Описание:
Мини-сериал "Насекомые или миллиметровый мир" снят южнокорейскими кинематографистами. Сериал демонстрирует зарождение и эволюцию всей флоры и фауны на планете. Природа постоянно подвержена различным изменениям и такие процессы происходят буквально каждую секунду. Все циклично - зиму сменяет весна. Хотя крошечные и, казалось бы, незначительные, насекомые - самая грозная сила природы. На протяжении всей истории эволюции они запрограммированы на выживание и распространение. Тем не менее, они также играют жизненно важную роль в балансировании экологии.
Жизнь мелких земноводных, насекомых, паукообразных часто проходит незаметной для человеческого глаза. Однако, порой она более драматична и насыщена событиями, чем мир крупных представителей животного мира. На какие ухищрения только не пускаются мелкие существа ради выживания и продолжения рода – одни мимикрируют, другие вступают в неожиданный симбиоз, третьи паразитируют. Личинки травоядных жуков становятся хищниками, имитируют соцветия растений, проникают в гнёзда конкурирующих видов. В фильме представлены уникальные микросъёмки сцен охоты ежей и лягушек, жужелиц и пауков-бокоходов, жуков-скакунов и муравьиных львов. Данное документальное кино будет способствовать у зрителя переосмыслению некоторых наблюдений и исследований. Ведь изменения в природе свидетельствуют о появлении нового мира. И подсмотреть, что происходит в таком крохотном новом мире можно благодаря данному циклу фильмов.
Релиз от: рип skorpionN
Продолжительность: 2x~00:48:52
Качество видео: HDTVRip
Перевод: Одноголосый закадровый, профессиональный (Видеофильм - ТВ)
Субтитры: отсутствуют
Видео: AVC/H.264, 1280x720, ~5000 Kbps
Аудио: AC3, 2 ch, 192 Kbps

Mediainfo:

Общее
Уникальный идентификатор : 234272173520501648713528549106529337904 (0xB03F2DEDF191BE65AD82EF25FC8C0230)
Полное имя : F:\КИНО\Insects_The World of Millimeters_720p\01_The Great Strategy.mkv
Формат : Matroska
Версия формата : Version 4 / Version 2
Размер файла : 1,77 Гбайт
Продолжительность : 48 м. 51 с.
Режим общего битрейта : Переменный
Общий поток : 5177 Кбит/сек
Дата кодирования : UTC 2017-10-03 18:00:40
Программа кодирования : mkvmerge v6.9.1 ('Blue Panther') 64bit built on Apr 18 2014 18:23:38
Библиотека кодирования : libebml v1.3.0 + libmatroska v1.4.1
Видео
Идентификатор : 1
Формат : AVC
Формат/Информация : Advanced Video Codec
Профиль формата : [email protected]
Настройки формата : CABAC / 3 Ref Frames
Параметр CABAC формата : Да
Параметр RefFrames формата : 3 кадра
Идентификатор кодека : V_MPEG4/ISO/AVC
Продолжительность : 48 м. 51 с.
Вид битрейта : Переменный
Битрейт : 5000 Кбит/сек
Максимальный битрейт : 8000 Кбит/сек
Ширина : 1280 пикселей
Высота : 720 пикселей
Соотношение сторон : 16:9
Режим частоты кадров : Постоянный
Частота кадров : 25,000 кадров/сек
Стандарт вещания : NTSC
Цветовое пространство : YUV
Субдискретизация насыщенности : 4:2:0
Битовая глубина : 8 бит
Тип развёртки : MBAFF
Метод сохранения типа развёртки : Чередующиеся поля
Порядок развёртки : Верхнее поле первое
Бит/(Пиксели*Кадры) : 0.217
Размер потока : 1,67 Гбайт (94%)
Библиотека кодирования : x264 core 114
Настройки программы : cabac=1 / ref=3 / deblock=1:0:0 / analyse=0x3:0x113 / me=hex / subme=7 / psy=1 / psy_rd=1.00:0.00 / mixed_ref=1 / me_range=16 / chroma_me=1 / trellis=1 / 8x8dct=1 / cqm=2 / deadzone=21,11 / fast_pskip=1 / chroma_qp_offset=-4 / threads=6 / sliced_threads=0 / slices=1 / nr=0 / decimate=1 / interlaced=tff / constrained_intra=0 / bframes=3 / b_pyramid=0 / b_adapt=1 / b_bias=0 / direct=1 / weightb=1 / open_gop=0 / weightp=0 / keyint=250 / keyint_min=25 / scenecut=40 / intra_refresh=0 / rc_lookahead=40 / rc=2pass / mbtree=1 / bitrate=5000 / ratetol=1.0 / qcomp=0.60 / qpmin=5 / qpmax=69 / qpstep=4 / cplxblur=20.0 / qblur=0.5 / vbv_maxrate=8000 / vbv_bufsize=7995 / nal_hrd=vbr / ip_ratio=1.40 / aq=1:1.00
Default : Да
Forced : Нет
Цветовой диапазон : Limited
Основные цвета : BT.709
Характеристики трансфера : BT.709
Коэффициенты матрицы : BT.709
Аудио
Идентификатор : 2
Формат : AC-3
Формат/Информация : Audio Coding 3
Параметр Endianness формата : Big
Идентификатор кодека : A_AC3
Продолжительность : 48 м. 51 с.
Вид битрейта : Постоянный
Битрейт : 192 Кбит/сек
Каналы : 2 канала
Расположение каналов : Front: L R
Частота : 48,0 КГц
Частота кадров : 31,250 кадров/сек (1536 SPF)
Битовая глубина : 16 бит
Метод сжатия : С потерями
Размер потока : 67,1 Мбайт (4%)
ServiceKind/String : Complete Main
Default : Да
Forced : Нет
Общее
Уникальный идентификатор : 249238814767914319042923033291577644609 (0xBB81A6508B61F773A4218084AE205641)
Полное имя : F:\КИНО\Insects_The World of Millimeters_720p\02_Leaves_a Micro_Cosmos.mkv
Формат : Matroska
Версия формата : Version 4 / Version 2
Размер файла : 1,71 Гбайт
Продолжительность : 47 м. 17 с.
Режим общего битрейта : Переменный
Общий поток : 5173 Кбит/сек
Дата кодирования : UTC 2017-10-06 18:26:43
Программа кодирования : mkvmerge v6.9.1 ('Blue Panther') 64bit built on Apr 18 2014 18:23:38
Библиотека кодирования : libebml v1.3.0 + libmatroska v1.4.1
Видео
Идентификатор : 2
Формат : AVC
Формат/Информация : Advanced Video Codec
Профиль формата : [email protected]
Настройки формата : CABAC / 3 Ref Frames
Параметр CABAC формата : Да
Параметр RefFrames формата : 3 кадра
Идентификатор кодека : V_MPEG4/ISO/AVC
Продолжительность : 47 м. 17 с.
Вид битрейта : Переменный
Битрейт : 5000 Кбит/сек
Максимальный битрейт : 8000 Кбит/сек
Ширина : 1280 пикселей
Высота : 720 пикселей
Соотношение сторон : 16:9
Режим частоты кадров : Постоянный
Частота кадров : 25,000 кадров/сек
Стандарт вещания : NTSC
Цветовое пространство : YUV
Субдискретизация насыщенности : 4:2:0
Битовая глубина : 8 бит
Тип развёртки : Прогрессивная
Бит/(Пиксели*Кадры) : 0.217
Размер потока : 1,61 Гбайт (94%)
Библиотека кодирования : x264 core 114
Настройки программы : cabac=1 / ref=3 / deblock=1:0:0 / analyse=0x3:0x113 / me=hex / subme=7 / psy=1 / psy_rd=1.00:0.00 / mixed_ref=1 / me_range=16 / chroma_me=1 / trellis=1 / 8x8dct=1 / cqm=2 / deadzone=21,11 / fast_pskip=1 / chroma_qp_offset=-4 / threads=6 / sliced_threads=0 / slices=1 / nr=0 / decimate=1 / interlaced=0 / constrained_intra=0 / bframes=3 / b_pyramid=0 / b_adapt=1 / b_bias=0 / direct=1 / weightb=1 / open_gop=0 / weightp=2 / keyint=250 / keyint_min=25 / scenecut=40 / intra_refresh=0 / rc_lookahead=40 / rc=2pass / mbtree=1 / bitrate=5000 / ratetol=1.0 / qcomp=0.60 / qpmin=5 / qpmax=69 / qpstep=4 / cplxblur=20.0 / qblur=0.5 / vbv_maxrate=8000 / vbv_bufsize=7995 / nal_hrd=vbr / ip_ratio=1.40 / aq=1:1.00
Default : Да
Forced : Нет
Цветовой диапазон : Limited
Основные цвета : BT.709
Характеристики трансфера : BT.709
Коэффициенты матрицы : BT.709
Аудио
Идентификатор : 1
Формат : AC-3
Формат/Информация : Audio Coding 3
Параметр Endianness формата : Big
Идентификатор кодека : A_AC3
Продолжительность : 47 м. 17 с.
Вид битрейта : Постоянный
Битрейт : 192 Кбит/сек
Каналы : 2 канала
Расположение каналов : Front: L R
Частота : 48,0 КГц
Частота кадров : 31,250 кадров/сек (1536 SPF)
Битовая глубина : 16 бит
Метод сжатия : С потерями
Размер потока : 65,0 Мбайт (4%)
ServiceKind/String : Complete Main
Default : Да
Forced : Нет

Содержание:

01. Великая стратегия / The Great Strategy
02. Микрокосмос листвы / Leaves, a Micro-Cosmos
Скриншоты:

Дополнительные скриншоты:

Все одноименные релизы в КлубеВремя раздачи: с 18:00 до 23:00 (до появления первых 3-5 скачавших)

If you like the topic, please click share to help develop our site.

To download the file disable ad blocking, and reload the page.

disable adblock How to disable ad blocking?

Download by magnet link 3.48 GB Download Torrent

Login using:

Similar topics



   
Current time is: 26-Apr 14:54 :: All times are UTC + 3