- Кубинский панцирник: уцелевший в болотах / Cuban Gar: Survivor of the Swamp (2006) HDTV [H.264/1080i-LQ] - Производство: Япония, NHK Enterprises, Inc.
Жанр: Документальный, фауна
Режиссер: Маркус Тернер
Описание:
В провинции Матансас на Кубе, в болотах Запата прячется в засаде доисторическое существо, современник огромных рептилий. Мы узнаем кто такие панцирники, или каймановые рыбы. Как и почему они сохранились именно в этой местности. И какие ещё редкие животные обитают в кубинских болотах.
Продолжительность: 00:26:00
Качество видео: HDTV
Перевод: Одноголосый закадровый, профессиональный
Субтитры: отсутствуют
Видео: AVC/H.264, 1920x1080, ~9243 Kbps
Аудио: AC3, 2 ch, 448 Kbps

Mediainfo:

Общее
Идентификатор : 1 (0x1)
Полное имя : F:\КИНО\Cuban.Gar.Survivor.of.the.Swamp.2006.HDTV.1080i.H264.ts
Формат : MPEG-TS
Размер файла : 1,85 Гбайт
Продолжительность : 26 м. 0 с.
Режим общего битрейта : Переменный
Общий поток : 10,2 Мбит/сек
Максимальный общий битрейт : 35,5 Мбит/сек
Видео
Идентификатор : 4113 (0x1011)
Идентификатор меню : 1 (0x1)
Формат : AVC
Формат/Информация : Advanced Video Codec
Профиль формата : [email protected]
Настройки формата : CABAC / 4 Ref Frames
Параметр CABAC формата : Да
Параметр RefFrames формата : 4 кадра
Параметр GOP формата : M=4, N=32
Идентификатор кодека : 27
Продолжительность : 26 м. 0 с.
Битрейт : 9243 Кбит/сек
Ширина : 1920 пикселей
Высота : 1080 пикселей
Соотношение сторон : 16:9
Частота кадров : 25,000 кадров/сек
Цветовое пространство : YUV
Субдискретизация насыщенности : 4:2:0
Битовая глубина : 8 бит
Тип развёртки : Чересстрочная
Метод сохранения типа развёртки : Раздельные поля
Порядок развёртки : Верхнее поле первое
Бит/(Пиксели*Кадры) : 0.178
Размер потока : 1,68 Гбайт (91%)
Цветовой диапазон : Limited
Основные цвета : BT.709
Характеристики трансфера : BT.709
Коэффициенты матрицы : BT.709
Аудио
Идентификатор : 4352 (0x1100)
Идентификатор меню : 1 (0x1)
Формат : AC-3
Формат/Информация : Audio Coding 3
Параметр Endianness формата : Big
Идентификатор кодека : 129
Продолжительность : 26 м. 0 с.
Вид битрейта : Постоянный
Битрейт : 448 Кбит/сек
Каналы : 2 канала
Расположение каналов : Front: L R
Частота : 48,0 КГц
Частота кадров : 31,250 кадров/сек (1536 SPF)
Битовая глубина : 16 бит
Метод сжатия : С потерями
Задержка видео : 102 мс.
Размер потока : 83,4 Мбайт (4%)
ServiceKind/String : Complete Main
Скриншоты:
Все одноименные релизы в КлубеВремя раздачи: с 18:00 до 23:00 (до появления первых 3-5 скачавших)

If you like the topic, please click share to help develop our site.

To download the file disable ad blocking, and reload the page.

disable adblock How to disable ad blocking?

Download by magnet link 1.85 GB Download Torrent

Login using:

Similar topics



   
Current time is: 21-Feb 21:02 :: All times are UTC + 3