- Бесценные рифы острова Окинава / Okinawa's Precious Reefs (1998) HDTV [H.264/1080i-LQ] - Производство: Япония, NHK
Жанр: Документальный, флора, фауна
Режиссер: Тетсухиро Сузуки, Юко Мияке
Описание:
Мы побываем в районе архипелага Рюкю и островов Кирама, где находятся знаменитые рифы. Здесь обитает около 400 видов кораллов всевозможных форм и расцветок. Колонии кораллов обеспечивают питанием многие формы жизни, являются убежищем для разных морских созданий. Мы узнаем, как образуются рифы, как размножаются и питаются кораллы, кто живёт в коралловых лесах, и почему это чудо природы может исчезнуть.
Продолжительность: 00:49:00
Качество видео: HDTV
Перевод: Одноголосый закадровый, профессиональный
Субтитры: отсутствуют
Видео: AVC/H.264, 1920x1080, ~8298 kbps
Аудио: AC3, 2 ch, 448 kbps

Mediainfo:

Общее
Идентификатор : 1 (0x1)
Полное имя : F:\КИНО\Okinawa's Precious Reefs.1998.HDTV.1080i.ts
Формат : MPEG-TS
Размер файла : 3,15 Гбайт
Продолжительность : 49 м. 0 с.
Режим общего битрейта : Переменный
Общий поток : 9205 Кбит/сек
Максимальный общий битрейт : 35,5 Мбит/сек
Видео
Идентификатор : 4113 (0x1011)
Идентификатор меню : 1 (0x1)
Формат : AVC
Формат/Информация : Advanced Video Codec
Профиль формата : [email protected]
Настройки формата : CABAC / 4 Ref Frames
Параметр CABAC формата : Да
Параметр RefFrames формата : 4 кадра
Параметр GOP формата : M=4, N=32
Идентификатор кодека : 27
Продолжительность : 48 м. 59 с.
Битрейт : 8298 Кбит/сек
Ширина : 1920 пикселей
Высота : 1080 пикселей
Соотношение сторон : 16:9
Частота кадров : 25,000 кадров/сек
Цветовое пространство : YUV
Субдискретизация насыщенности : 4:2:0
Битовая глубина : 8 бит
Тип развёртки : Чересстрочная
Метод сохранения типа развёртки : Раздельные поля
Порядок развёртки : Верхнее поле первое
Бит/(Пиксели*Кадры) : 0.160
Размер потока : 2,84 Гбайт (90%)
Цветовой диапазон : Limited
Основные цвета : BT.709
Характеристики трансфера : BT.709
Коэффициенты матрицы : BT.709
Аудио
Идентификатор : 4352 (0x1100)
Идентификатор меню : 1 (0x1)
Формат : AC-3
Формат/Информация : Audio Coding 3
Параметр Endianness формата : Big
Идентификатор кодека : 129
Продолжительность : 49 м. 0 с.
Вид битрейта : Постоянный
Битрейт : 448 Кбит/сек
Каналы : 2 канала
Расположение каналов : Front: L R
Частота : 48,0 КГц
Частота кадров : 31,250 кадров/сек (1536 SPF)
Битовая глубина : 16 бит
Метод сжатия : С потерями
Задержка видео : 102 мс.
Размер потока : 157 Мбайт (5%)
ServiceKind/String : Complete Main
Скриншоты:
Все одноименные релизы в КлубеВремя раздачи: с 18:00 до 23:00 (до появления первых 3-5 скачавших)

If you like the topic, please click share to help develop our site.

To download the file disable ad blocking, and reload the page.

disable adblock How to disable ad blocking?

Download by magnet link 3.15 GB Download Torrent

Login using:

Similar topics

Живые воды / Living waters (2015) HDRip [H.264/1080p-LQ] [VO]
 1.9 GB   0 | 1   13-Nov-18 00:40   6


   
Current time is: 20-Apr 06:02 :: All times are UTC + 3