- Остров дьявола / Devil Island (2013) HDTVRip [H.264/1080p-LQ] (Серии 1-6 из 6) - Производство: Австралия, Planetary Collective
Жанр: Документальный, приключения
Режиссер: Эндрю Салли
Участники: Джейсон Донован, Бен Аффул, Джанин Бениус, Джоан Галифакс, Пол Хокен
Описание:
Пятнадцать избалованных тасманийских дьяволов покинут безопасность приютов в Австралии и будут отправлены на отдаленный остров, чтобы выживать самостоятельно. Эти веселые создания не подозревают, что дьяволы пали жертвой очень заразной формы рака, которая уничтожила 80% их численности. План спасения их от вымирания заключается в создании «страховочной» популяции на острове у побережья Тасмании. Это рискованный эксперимент, потому что выращенные в неволе особи никогда сами не охотились, не искали убежище и не сталкивались с хищниками. Вас ждет хаос и волнение в нашем рассказе о том, как маленькие дьяволы приложат все усилия, чтобы спасти свой вид (и самих себя) на острове Дьявола.
Продолжительность: 6 x ~ 00:25:10
Качество видео: HDTVRip
Перевод: Одноголосый закадровый, профессиональный (SDI Media)
Субтитры: отсутствуют
Видео: AVC/H.264, 1920x1080, ~4052 Kbps
Аудио#1: AAC, 2 ch, 192 Kbps | Русский
Аудио#2: AAC, 2 ch, 192 Kbps | Английский

Mediainfo: (тех. данные всех серий идентичны)

Общее
Уникальный идентификатор : 245971241360850327232104952854972953840 (0xB90C5681E460CA4B8C67AE0AE9D374F0)
Полное имя : F:\КИНО\Devil Island\04. Summer on Devil Island (Лето на острове Дьявола).mkv
Формат : Matroska
Версия формата : Version 4 / Version 2
Размер файла : 801 Мбайт
Продолжительность : 25 м. 15 с.
Режим общего битрейта : Переменный
Общий поток : 4434 Кбит/сек
Название фильма : Остров Дьявола / Devil Island (2013)
Дата кодирования : UTC 2017-09-18 15:21:43
Программа кодирования : mkvmerge v8.2.0 ('World of Adventure') 64bit
Библиотека кодирования : libebml v1.3.1 + libmatroska v1.4.2
Видео
Идентификатор : 1
Формат : AVC
Формат/Информация : Advanced Video Codec
Профиль формата : [email protected]
Настройки формата : CABAC / 4 Ref Frames
Параметр CABAC формата : Да
Параметр RefFrames формата : 4 кадра
Идентификатор кодека : V_MPEG4/ISO/AVC
Продолжительность : 25 м. 15 с.
Вид битрейта : Переменный
Битрейт : 4052 Кбит/сек
Максимальный битрейт : 4500 Кбит/сек
Ширина : 1920 пикселей
Высота : 1080 пикселей
Соотношение сторон : 16:9
Режим частоты кадров : Постоянный
Частота кадров : 25,000 кадров/сек
Цветовое пространство : YUV
Субдискретизация насыщенности : 4:2:0
Битовая глубина : 8 бит
Тип развёртки : Прогрессивная
Бит/(Пиксели*Кадры) : 0.078
Размер потока : 732 Мбайт (91%)
Язык : English
Default : Да
Forced : Нет
Аудио #1
Идентификатор : 2
Формат : AAC
Формат/Информация : Advanced Audio Codec
Профиль формата : LC
Идентификатор кодека : A_AAC-2
Продолжительность : 25 м. 15 с.
Битрейт : 192 Кбит/сек
Каналы : 2 канала
Расположение каналов : Front: L R
Частота : 48,0 КГц
Частота кадров : 46,875 кадров/сек (1024 SPF)
Метод сжатия : С потерями
Размер потока : 34,2 Мбайт (4%)
Заголовок : Профессиональный (одноголосый закадровый) SDI Media
Язык : Russian
Default : Да
Forced : Нет
Аудио #2
Идентификатор : 3
Формат : AAC
Формат/Информация : Advanced Audio Codec
Профиль формата : LC
Идентификатор кодека : A_AAC-2
Продолжительность : 25 м. 15 с.
Битрейт : 192 Кбит/сек
Каналы : 2 канала
Расположение каналов : Front: L R
Частота : 48,0 КГц
Частота кадров : 46,875 кадров/сек (1024 SPF)
Метод сжатия : С потерями
Размер потока : 34,2 Мбайт (4%)
Язык : English
Default : Нет
Forced : Нет

Содержание:

01. Mission Maria Island (Остров Мария)
02. Devil D Day (День высадки дьяволов)
03. Meet the Neighbours (Встреча с соседями)
04. Summer on Devil Island (Лето на острове Дьявола)
05. Manny Goes Missing (Исчезновение Мэнни)
06. Devil Dynasty (Дьявольская династия)
Скриншоты:

Дополнительные скриншоты:

Все одноименные релизы в КлубеВремя раздачи: с 18:00 до 23:00 (до появления первых 3-5 скачавших)

If you like the topic, please click share to help develop our site.

To download the file disable ad blocking, and reload the page.

disable adblock How to disable ad blocking?

Download by magnet link 4.69 GB Download Torrent

Login using:

Similar topics



   
Current time is: 23-Apr 20:53 :: All times are UTC + 3