- Заповедные леса Амазонии / Uncharted Amazon (2015) SATRip - Телекомпания: Великобритания, Citilink of Media
Жанр: Документальный, природа, флора, фауна
Режиссер: Тристан Томпсон
Описание:
Дождевые леса Амазонской низменности - необъятное зеленое море нашей планеты. Сквозь эти непроходимые дебри течет река Лас-Пьедрас - один из длиннейших притоков Амазонки. В джунглях на ее берегах все происходит так же, как и тысячи лет назад.
Релиз от: рип Mersicc
Продолжительность: 00:51:41
Качество видео: SATRip
Перевод: Одноголосый закадровый, профессиональный
Субтитры: отсутствуют
Видео: Xvid, 720x408, ~1817 kbps
Аудио: MP2, 2 ch, 128 Kbps

Mediainfo:

Общее
Полное имя : F:\КИНО\Заповедные леса Амазонии.avi
Формат : AVI
Формат/Информация : Audio Video Interleave
Размер файла : 723 Мбайт
Продолжительность : 51 м. 40 с.
Общий поток : 1956 Кбит/сек
Программа кодирования : VirtualDubMod 1.5.10.2 (build 2540/release)
Библиотека кодирования : VirtualDubMod build 2540/release
Видео
Идентификатор : 0
Формат : MPEG-4 Visual
Профиль формата : Advanced [email protected]
Параметр BVOP формата : 1
Параметр QPel формата : Нет
Параметр GMC формата : Без точки перехода
Параметр матрицы формата : Default (MPEG)
Идентификатор кодека : XVID
Идентификатор кодека/Подсказка : XviD
Продолжительность : 51 м. 40 с.
Битрейт : 1818 Кбит/сек
Ширина : 720 пикселей
Высота : 408 пикселей
Соотношение сторон : 16:9
Частота кадров : 25,000 кадров/сек
Цветовое пространство : YUV
Субдискретизация насыщенности : 4:2:0
Битовая глубина : 8 бит
Тип развёртки : Прогрессивная
Метод сжатия : С потерями
Бит/(Пиксели*Кадры) : 0.248
Размер потока : 672 Мбайт (93%)
Библиотека кодирования : XviD 1.2.1 (UTC 2008-12-04)
Аудио
Идентификатор : 1
Формат : MPEG Audio
Версия формата : Version 1
Профиль формата : Layer 3
Идентификатор кодека : 55
Идентификатор кодека/Подсказка : MP3
Продолжительность : 51 м. 40 с.
Вид битрейта : Постоянный
Битрейт : 128 Кбит/сек
Каналы : 2 канала
Частота : 48,0 КГц
Метод сжатия : С потерями
Размер потока : 47,3 Мбайт (7%)
Выравнивание : Соединение по промежуткам
Продолжительность промежутка : 40 мс. (1,00 видеокадр)
Время предзагрузки промежутка : 504 мс.
Библиотека кодирования : LAME3.99.5ЄЄЄЄЄЄЄЄЄЄ
Скриншоты:
Все одноименные релизы в КлубеВремя раздачи: с 18:00 до 23:00 (до появления первых 3-5 скачавших)

If you like the topic, please click share to help develop our site.

To download the file disable ad blocking, and reload the page.

disable adblock How to disable ad blocking?

Download by magnet link 723 MB Download Torrent

Login using:

Similar topics

Живые воды / Living waters (2015) HDRip [H.264/1080p-LQ] [VO]
 1.9 GB   0 | 1   13-Nov-18 00:40   6


   
Current time is: 26-Apr 15:22 :: All times are UTC + 3