- Сказка про озеро / Tale of a Lake / Jrven tarina (2016) BDRemux [H.264/1080p] [En, Finn] - Производство: Финляндия, Matila Rhr Productions (MRP)
Жанр: Документальный, видовой, природа
Режиссер: Марко Рор, Ким Саарнилуото
Описание:
"Сказка про озеро" фильм о тысячах озер, которыми известна Финляндия. Он отправляет зрителей на беспрецедентное приключение начинающегося от кристально чистых источников вплоть до бассейнов крупных озер. Для зрителей оно открывает целый новый мир подводной природы, и рассказывает о многих старых сказках и верованиях в "Земле тысячи озер". История в фильме рассказана через сказки, которые основаны на мифах, легендах и старых верованиях, которые являются частью финской мифологии.
Съемки проходили на озеро Сайма, регион Лаппеенранта и Иматра, Финляндия.

Релиз от: boba88
Продолжительность: 01:15:43
Качество видео: BDRemux
Язык: English, Finnish
Перевод: Отсутствует
Субтитры: английские, финские, шведские
Видео: AVC/H.264, 1920 x 1080, ~26,4 Mbps
Аудио#1: DTS-HD MA, 6 ch, 768 | Английский
Аудио#2: DTS-HD MA, 6 ch, 768 | Финский

Mediainfo:

Общее
Уникальный идентификатор : 239083311093098836698912228215598131658 (0xB3DDC55364EB9285A0369795ABF8A9CA)
Полное имя : F:\КИНО\Jarven_tarina_BDRemux.mkv
Формат : Matroska
Версия формата : Version 4 / Version 2
Размер файла : 14,8 Гбайт
Продолжительность : 1 ч. 15 м.
Режим общего битрейта : Переменный
Общий поток : 27,9 Мбит/сек
Название фильма : Jrven tarina
Дата кодирования : UTC 2017-08-03 09:37:06
Программа кодирования : mkvmerge v13.0.0 ('The Juggler') 64bit
Библиотека кодирования : libebml v1.3.4 + libmatroska v1.4.5
Видео
Идентификатор : 1
Формат : AVC
Формат/Информация : Advanced Video Codec
Профиль формата : [email protected]
Параметр CABAC формата : Да
Параметр RefFrames формата : 4 кадра
Параметр GOP формата : M=3, N=24
Идентификатор кодека : V_MPEG4/ISO/AVC
Продолжительность : 1 ч. 15 м.
Вид битрейта : Переменный
Битрейт : 26,4 Мбит/сек
Максимальный битрейт : 32,0 Мбит/сек
Ширина : 1920 пикселей
Высота : 1080 пикселей
Соотношение сторон : 16:9
Режим частоты кадров : Постоянный
Частота кадров : 23,976 (24000/1001) кадра/сек
Стандарт вещания : NTSC
Цветовое пространство : YUV
Субдискретизация насыщенности : 4:2:0
Битовая глубина : 8 бит
Тип развёртки : Прогрессивная
Бит/(Пиксели*Кадры) : 0.530
Размер потока : 13,9 Гбайт (94%)
Язык : English
Default : Нет
Forced : Нет
Цветовой диапазон : Limited
Основные цвета : BT.709
Характеристики трансфера : BT.709
Коэффициенты матрицы : BT.709
Аудио #1
Идентификатор : 2
Формат : DTS
Формат/Информация : Digital Theater Systems
Режим : 16
Параметр Endianness формата : Big
Идентификатор кодека : A_DTS
Продолжительность : 1 ч. 15 м.
Вид битрейта : Постоянный
Битрейт : 768 Кбит/сек
Каналы : 6 каналов
Расположение каналов : Front: L C R, Side: L R, LFE
Частота : 48,0 КГц
Частота кадров : 93,750 кадра/сек (512 SPF)
Битовая глубина : 24 бит
Метод сжатия : С потерями
Размер потока : 416 Мбайт (3%)
Заголовок : Surround 5.1
Язык : English
Default : Да
Forced : Нет
Аудио #2
Идентификатор : 3
Формат : DTS
Формат/Информация : Digital Theater Systems
Режим : 16
Параметр Endianness формата : Big
Идентификатор кодека : A_DTS
Продолжительность : 1 ч. 15 м.
Вид битрейта : Постоянный
Битрейт : 768 Кбит/сек
Каналы : 6 каналов
Расположение каналов : Front: L C R, Side: L R, LFE
Частота : 48,0 КГц
Частота кадров : 93,750 кадра/сек (512 SPF)
Битовая глубина : 24 бит
Метод сжатия : С потерями
Размер потока : 416 Мбайт (3%)
Заголовок : Surround 5.1
Язык : Finnish
Default : Нет
Forced : Нет
Текст #1
Идентификатор : 4
Формат : PGS
Режим смешивания : zlib
Идентификатор кодека : S_HDMV/PGS
Идентификатор кодека/Информация : Picture based subtitle format used on BDs/HD-DVDs
Продолжительность : 1 ч. 12 м.
Битрейт : 15,0 Кбит/сек
ElementCount : 614
Размер потока : 7,78 Мбайт (0%)
Язык : English
Default : Да
Forced : Нет
Текст #2
Идентификатор : 5
Формат : PGS
Режим смешивания : zlib
Идентификатор кодека : S_HDMV/PGS
Идентификатор кодека/Информация : Picture based subtitle format used on BDs/HD-DVDs
Продолжительность : 1 ч. 12 м.
Битрейт : 15,8 Кбит/сек
ElementCount : 612
Размер потока : 8,20 Мбайт (0%)
Язык : Finnish
Default : Нет
Forced : Нет
Текст #3
Идентификатор : 6
Формат : PGS
Режим смешивания : zlib
Идентификатор кодека : S_HDMV/PGS
Идентификатор кодека/Информация : Picture based subtitle format used on BDs/HD-DVDs
Продолжительность : 1 ч. 12 м.
Битрейт : 14,3 Кбит/сек
ElementCount : 614
Размер потока : 7,45 Мбайт (0%)
Язык : Swedish
Default : Нет
Forced : Нет
Скриншоты:

Дополнительные скриншоты:

Все одноименные релизы в КлубеВремя раздачи: с 18:00 до 23:00 (до появления первых 3-5 скачавших)

If you like the topic, please click share to help develop our site.

To download the file disable ad blocking, and reload the page.

disable adblock How to disable ad blocking?

Download by magnet link 14.76 GB Download Torrent

Login using:

Similar topics

Живые воды / Living waters (2015) HDRip [H.264/1080p-LQ] [VO]
 1.9 GB   0 | 1   13-Nov-18 00:40   6


   
Current time is: 26-Apr 14:58 :: All times are UTC + 3