- Париж. Тайная история / La Vie sauvage Paris (2016) DVB - Производство: Франция, Borales and Winds films
Жанр: Документальный, фауна
Режиссер: Фредерик Фужа
Описание:
Париж знаменит своим искусством, архитектурой, модой и культурой. Но есть у французской столицы и другая сторона, о которой немногие знают
Релиз от: skorpionN
Продолжительность: 01:29:41
Качество видео: DVB
Перевод: Одноголосый закадровый, профессиональный
Субтитры: отсутствуют
Видео: AVC/H.264, 720х[email protected], ~1941 Kbps
Аудио: MP3, 2 ch, 192 Kbps

Mediainfo:

Общее
Идентификатор : 1 (0x1)
Полное имя : F:\КИНО\Paris A Wild Story.ts
Формат : MPEG-TS
Размер файла : 1,41 Гбайт
Продолжительность : 1 ч. 29 м.
Режим общего битрейта : Переменный
Общий поток : 2246 Кбит/сек
Видео
Идентификатор : 205 (0xCD)
Идентификатор меню : 1805 (0x70D)
Формат : AVC
Формат/Информация : Advanced Video Codec
Профиль формата : [email protected]
Параметр CABAC формата : Да
Параметр RefFrames формата : 4 кадра
Параметр GOP формата : M=4, N=28
Идентификатор кодека : 27
Продолжительность : 1 ч. 29 м.
Битрейт : 1941 Кбит/сек
Ширина : 720 пикселей
Высота : 576 пикселей
Соотношение сторон : 4:3
Частота кадров : 25,000 кадров/сек
Стандарт вещания : Component
Цветовое пространство : YUV
Субдискретизация насыщенности : 4:2:0
Битовая глубина : 8 бит
Тип развёртки : Чересстрочная
Метод сохранения типа развёртки : Раздельные поля
Порядок развёртки : Верхнее поле первое
Бит/(Пиксели*Кадры) : 0.187
Размер потока : 1,22 Гбайт (86%)
Цветовой диапазон : Limited
Основные цвета : BT.601 PAL
Характеристики трансфера : BT.470 System B, BT.470 System G
Коэффициенты матрицы : BT.601
Аудио
Идентификатор : 305 (0x131)
Идентификатор меню : 1805 (0x70D)
Формат : MPEG Audio
Версия формата : Version 1
Профиль формата : Layer 2
Идентификатор кодека : 3
Продолжительность : 1 ч. 29 м.
Вид битрейта : Постоянный
Битрейт : 192 Кбит/сек
Каналы : 2 канала
Частота : 48,0 КГц
Метод сжатия : С потерями
Размер потока : 123 Мбайт (9%)
Язык : Russian
Скриншоты:
Все одноименные релизы в КлубеВремя раздачи: с 18:00 до 23:00 (до появления первых 3-5 скачавших)

If you like the topic, please click share to help develop our site.

To download the file disable ad blocking, and reload the page.

disable adblock How to disable ad blocking?

Download by magnet link 1.41 GB Download Torrent

Login using:

Similar topics



   
Current time is: 18-Jul 12:10 :: All times are UTC + 3