- Год из жизни ежа / The Year of the Hedgehog (2009) HDTV [H.264/1080i-LQ]- Производство: Австрия, NO Landesverwaltung, Power of Earth TV & Film Productions, bm: ukk
Жанр: Документальный, научно-популярный, фауна
Режиссер: Курт Мюндл
Описание:
Весной, когда воздух прозрачен и тонок, а в лесах появились первые весенние цветы, из вороха листьев появляется мордочка – это ёж пробуждается от зимней спячки. Пришло время узнать о его жизни как можно больше, ведь, не смотря на то, что этот зверек знаком многим, он хранит еще много удивительных тайн и загадок.

Релиз от: DaVinci
Продолжительность: 00:49:10
Качество видео: HDTV
Перевод: Дублированный
Язык озвучки: русский, украинский, английский
Субтитры: отсутствуют
Видео: AVC/H.264, 1920x1080, ~13.4 Mbps
Аудио#1: AC3, 2 ch, 192 Kbps | Русский (Первый ТВЧ)
Аудио#2: AC3, 2 ch, 192 Kbps | Русский (SDI Media, Дмитрий Шандро)
Аудио#3: AC3, 2 ch, 192 Kbps | Украинский (Одноголосый закадровый)
Аудио#4: AC3, 2 ch, 192 Kbps | Английский

Mediainfo:

Общее
Идентификатор : 1 (0x1)
Полное имя : F:\КИНО\1080i\The.Year.of.the.Hedgehog.(2009).1080i.HDTV.2xRus.Ukr.Eng.ts
Формат : MPEG-TS
Размер файла : 5,15 Гбайт
Продолжительность : 49 м. 10 с.
Режим общего битрейта : Переменный
Общий поток : 15,0 Мбит/сек
Максимальный общий битрейт : 35,5 Мбит/сек
Видео
Идентификатор : 4113 (0x1011)
Идентификатор меню : 1 (0x1)
Формат : AVC
Формат/Информация : Advanced Video Codec
Профиль формата : [email protected]
Параметр CABAC формата : Да
Параметр ReFrames формата : 3 кадра
Идентификатор кодека : 27
Продолжительность : 49 м. 10 с.
Вид битрейта : Переменный
Битрейт : 13,5 Мбит/сек
Максимальный битрейт : 40,0 Мбит/сек
Ширина : 1920 пикселей
Высота : 1080 пикселей
Соотношение сторон : 16:9
Частота кадров : 25,000 кадров/сек
Стандарт вещания : Component
Цветовое пространство : YUV
Субдискретизация насыщенности : 4:2:0
Битовая глубина : 8 бит
Тип развёртки : Чересстрочная
Метод сохранения типа развёртки : Раздельные поля
Порядок развёртки : Верхнее поле первое
Бит/(Пиксели*Кадры) : 0.260
Размер потока : 4,63 Гбайт (90%)
Цветовой диапазон : Limited
Аудио #1
Идентификатор : 4352 (0x1100)
Идентификатор меню : 1 (0x1)
Формат : AC-3
Формат/Информация : Audio Coding 3
Параметр Endianness формата : Big
Идентификатор кодека : 129
Продолжительность : 49 м. 10 с.
Вид битрейта : Постоянный
Битрейт : 192 Кбит/сек
Каналы : 2 канала
Расположение каналов : Front: L R
Частота : 48,0 КГц
Частота кадров : 31,250 кадров/сек (1536 spf)
Битовая глубина : 16 бит
Метод сжатия : С потерями
Размер потока : 67,5 Мбайт (1%)
Язык : Russian
ServiceKind/String : Complete Main
Аудио #2
Идентификатор : 4353 (0x1101)
Идентификатор меню : 1 (0x1)
Формат : AC-3
Формат/Информация : Audio Coding 3
Параметр Endianness формата : Big
Идентификатор кодека : 129
Продолжительность : 49 м. 10 с.
Вид битрейта : Постоянный
Битрейт : 192 Кбит/сек
Каналы : 2 канала
Расположение каналов : Front: L R
Частота : 48,0 КГц
Частота кадров : 31,250 кадров/сек (1536 spf)
Битовая глубина : 16 бит
Метод сжатия : С потерями
Размер потока : 67,5 Мбайт (1%)
Язык : Russian
ServiceKind/String : Complete Main
Аудио #3
Идентификатор : 4354 (0x1102)
Идентификатор меню : 1 (0x1)
Формат : AC-3
Формат/Информация : Audio Coding 3
Параметр Endianness формата : Big
Идентификатор кодека : 129
Продолжительность : 49 м. 10 с.
Вид битрейта : Постоянный
Битрейт : 192 Кбит/сек
Каналы : 2 канала
Расположение каналов : Front: L R
Частота : 48,0 КГц
Частота кадров : 31,250 кадров/сек (1536 spf)
Битовая глубина : 16 бит
Метод сжатия : С потерями
Размер потока : 67,5 Мбайт (1%)
Язык : Ukrainian
ServiceKind/String : Complete Main
Аудио #4
Идентификатор : 4355 (0x1103)
Идентификатор меню : 1 (0x1)
Формат : AC-3
Формат/Информация : Audio Coding 3
Параметр Endianness формата : Big
Идентификатор кодека : 129
Продолжительность : 49 м. 10 с.
Вид битрейта : Постоянный
Битрейт : 192 Кбит/сек
Каналы : 2 канала
Расположение каналов : Front: L R
Частота : 48,0 КГц
Частота кадров : 31,250 кадров/сек (1536 spf)
Битовая глубина : 16 бит
Метод сжатия : С потерями
Размер потока : 67,5 Мбайт (1%)
Язык : English
ServiceKind/String : Complete Main
Скриншоты:

Дополнительные скриншоты:

Все одноименные релизы в КлубеВремя раздачи: с 18:00 до 23:00 (до появления первых 3-5 скачавших)

If you like the topic, please click share to help develop our site.

To download the file disable ad blocking, and reload the page.

disable adblock How to disable ad blocking?

Download by magnet link 5.15 GB Download Torrent

Login using:

Similar topics

Живые воды / Living waters (2015) HDRip [H.264/1080p-LQ] [VO]
 1.9 GB   4 | 1   13-Nov-18 00:40   6


   
Current time is: 21-Feb 21:50 :: All times are UTC + 3