- Миллион вопросов о природе (2016) WEBRip [H.264/1080p-LQ] (Серии 1-26 из 26) - Телекомпания: Россия, МТРК «Мир»
Жанр: Документальный, флора, фауна
Режиссер: Игорь Бышнёв
Участники: Игорь Бышнёв, Илья Бышнёв (ведушие)
Описание:
Познавательная программа о дикой природе России и стран бывшего СССР. Вы сможете побывать в отдаленных уголках нашей необъятной родины и узнать о существовании мест неописуемой красоты и их обитателях. Программа раскрывает завесу тайн существования наших соседей по планете и материку. Ведущие программы дадут ответ на миллион вопросов, а может быть даже больше. Из чего делают гнезда и фетровые шляпы? Куда улетают журавли? Кто такие болотные луни? И многое-многое другое... Мир природы невероятно удивителен и загадочен, но живя в городах, люди порой совершенно об этом забывают, не говоря уже о том, что большинство никогда не имело возможности познакомиться с ним близко. «Миллион вопросов о природе» – это прекрасная возможность восполнить пробел в своих знаниях, да и просто приятно провести время в наблюдениях за такими разными обитателями средней полосы.
Релиз от: Рип Gorgona007
Продолжительность: 26 х ~ 00:13:00
Качество видео: WEBRip
Субтитры: отсутствуют
Видео: AVC/H.264, 1920x1080, ~1500 Kbps
Аудио: AC3, 2 ch, 192 Kbps

Mediainfo: (тех. данные всех серий идентичны)

Общее
Уникальный идентификатор : 102947100916349753923242055216495549499 (0x4D72E3F380008BCDEAD12071D26B5C3B)
Полное имя : F:\КИНО\Миллион вопросов о природе.2015.WEBRip1080p.Files-х\11.Как лебеди встречают весну.2015.WEBRip1080p.Files-х.mkv
Формат : Matroska
Версия формата : Version 4 / Version 2
Размер файла : 157 Мбайт
Продолжительность : 12 м. 58 с.
Режим общего битрейта : Постоянный
Общий поток : 1687 Кбит/сек
Программа кодирования : Lavf56.36.100
Библиотека кодирования : Lavf56.36.100
Видео
Идентификатор : 1
Формат : AVC
Формат/Информация : Advanced Video Codec
Профиль формата : [email protected]
Параметр CABAC формата : Да
Параметр ReFrames формата : 3 кадра
Идентификатор кодека : V_MPEG4/ISO/AVC
Продолжительность : 12 м. 58 с.
Вид битрейта : Постоянный
Битрейт : 1500 Кбит/сек
Ширина : 1920 пикселей
Высота : 1080 пикселей
Соотношение сторон : 16:9
Режим частоты кадров : Постоянный
Частота кадров : 25,000 кадров/сек
Стандарт вещания : PAL
Цветовое пространство : YUV
Субдискретизация насыщенности : 4:2:0
Битовая глубина : 8 бит
Тип развёртки : Прогрессивная
Бит/(Пиксели*Кадры) : 0.029
Размер потока : 136 Мбайт (87%)
Default : Да
Forced : Нет
Цветовой диапазон : Limited
Аудио
Идентификатор : 2
Формат : AC-3
Формат/Информация : Audio Coding 3
Параметр Endianness формата : Big
Идентификатор кодека : A_AC3
Продолжительность : 12 м. 58 с.
Вид битрейта : Постоянный
Битрейт : 192 Кбит/сек
Каналы : 2 канала
Расположение каналов : Front: L R
Частота : 48,0 КГц
Частота кадров : 31,250 кадров/сек (1536 spf)
Битовая глубина : 16 бит
Метод сжатия : С потерями
Задержка видео : -40 мс.
Размер потока : 17,8 Мбайт (11%)
Язык : unknown
ServiceKind/String : Complete Main
Default : Да
Forced : Нет

Содержание:

01. Апрель - время перемен
02. Болотные жители
03. Брачные игры
04. Весна идет! Весне дорогу!
05. Где горы держат небо
06. Где зимуют птицы
07. День биологического разнообразия
08. Дикие птицы
09. Жители речной долины
10. Звуки леса
11. Как лебеди встречают весну
12. Как растут рога у оленей
13. Край голубых озер
14. Крылатые жители зимнего леса
15. Крылатые обитатели водоемов
16. Кто сопровождает луну: обитатели белорусских лесов
17. Кто ходит боком
18. Летняя прогулка: чем удивит лесная чаща
19. Обитатели гор и вершин
20. Осенняя жизнь животных
21. Пернатые на зимовке
22. Птичья песня
23. Самые компанейские животные
24. Самый старый лес
25. Семья по звериным законам
26. Строители леса
Скриншоты:
Все одноименные релизы в КлубеВремя раздачи: с 18:00 до 23:00 (до появления первых 3-5 скачавших)

If you like the topic, please click share to help develop our site.

To download the file disable ad blocking, and reload the page.

disable adblock How to disable ad blocking?

Download by magnet link 3.94 GB Download Torrent

Login using:

Similar topics

Живые воды / Living waters (2015) HDRip [H.264/1080p-LQ] [VO]
 1.9 GB   6 | 1   13-Nov-18 00:40   6


   
Current time is: 17-Feb 16:29 :: All times are UTC + 3