- Вторжение гигантских питонов / Invasion Of The Giant Pythons (2009) HDTVRip [H.264/720p-LQ] (сезон 28, эпизод 8) - Производство: Великобритания, Image Impact
Жанр: Документальный, природа, флора, фауна
Режиссер: Мэтью Райт
Участники: Найджел Марвен
Описание:
Несколько туристов на юге солнечного штата внезапно обнаружили, что в этом году свой отпуск им придется провести в двух шагах от места обитания семиметровых змей толщиной с телеграфный столб. Эти огромные рептилии способны проглотить целого аллигатора или пуму, могут откладывать до ста яиц в год и способны убить человека. В этом документальном фильме мы сможем увидеть уникальные кадры логова диких питонов во Флориде, замедленную съемку момента нападения питона на жертву, а также, Найджелу предстоит встреча с самым большим представителем этих рептилией, обитающим в США. Удастся ли этим гигантам окончательно завоевать национальный парк Эверглейдс и продолжить покорение других территорий Флориды?

Релиз от: рип skorpionN
Продолжительность: 00:44:58
Качество видео: HDTVRip
Перевод: Одноголосый закадровый, профессиональный (SDI Media, перевод Д. Михеева, текст читал Игорь Куликов)
Субтитры: отсутствуют
Видео: AVC/H.264, 1280x720, ~4190 Kbps
Аудио#1: AC3, 2 ch, 192 Kbps | Русский
Аудио#2: MP2, 2 ch, 192 Kbps | Английский

Mediainfo:

Общее
Уникальный идентификатор : 187397174033027986887986579362368226243 (0x8CFB62057F326BFDB652969BC76C83C3)
Полное имя : F:\КИНО\Invasion of the giant pythons Florida_720p.mkv
Формат : Matroska
Версия формата : Version 4 / Version 2
Размер файла : 1,42 Гбайт
Продолжительность : 44 м. 58 с.
Общий поток : 4519 Кбит/сек
Дата кодирования : UTC 2015-05-18 17:44:01
Программа кодирования : mkvmerge v7.9.0 ('Birds') 64bit
Библиотека кодирования : libebml v1.3.1 + libmatroska v1.4.2
Видео
Идентификатор : 1
Формат : AVC
Формат/Информация : Advanced Video Codec
Профиль формата : [email protected]
Параметр CABAC формата : Да
Параметр ReFrames формата : 5 кадров
Идентификатор кодека : V_MPEG4/ISO/AVC
Продолжительность : 44 м. 58 с.
Битрейт : 4133 Кбит/сек
Ширина : 1280 пикселей
Высота : 720 пикселей
Соотношение сторон : 16:9
Режим частоты кадров : Постоянный
Частота кадров : 25,000 кадров/сек
Цветовое пространство : YUV
Субдискретизация насыщенности : 4:2:0
Битовая глубина : 8 бит
Тип развёртки : Прогрессивная
Бит/(Пиксели*Кадры) : 0.179
Размер потока : 1,30 Гбайт (91%)
Библиотека кодирования : x264 core 146 r2538 121396c
Настройки программы : cabac=1 / ref=5 / deblock=1:0:0 / analyse=0x3:0x113 / me=umh / subme=8 / psy=1 / psy_rd=1.00:0.00 / mixed_ref=1 / me_range=16 / chroma_me=1 / trellis=1 / 8x8dct=1 / cqm=0 / deadzone=21,11 / fast_pskip=1 / chroma_qp_offset=-2 / threads=18 / lookahead_threads=3 / sliced_threads=0 / nr=0 / decimate=1 / interlaced=0 / bluray_compat=0 / stitchable=1 / constrained_intra=0 / bframes=3 / b_pyramid=2 / b_adapt=2 / b_bias=0 / direct=3 / weightb=1 / open_gop=0 / weightp=2 / keyint=250 / keyint_min=25 / scenecut=40 / intra_refresh=0 / rc_lookahead=50 / rc=crf / mbtree=1 / crf=19.0 / qcomp=0.60 / qpmin=0 / qpmax=69 / qpstep=4 / ip_ratio=1.40 / aq=1:1.00
Default : Да
Forced : Нет
Цветовой диапазон : Limited
Основные цвета : BT.709
Характеристики трансфера : BT.709
Коэффициенты матрицы : BT.709
Аудио #1
Идентификатор : 2
Формат : AC-3
Формат/Информация : Audio Coding 3
Параметр Endianness формата : Big
Идентификатор кодека : A_AC3
Продолжительность : 44 м. 58 с.
Вид битрейта : Постоянный
Битрейт : 192 Кбит/сек
Каналы : 2 канала
Расположение каналов : Front: L R
Частота : 48,0 КГц
Частота кадров : 31,250 кадров/сек (1536 spf)
Битовая глубина : 16 бит
Метод сжатия : С потерями
Размер потока : 61,8 Мбайт (4%)
Язык : Russian
ServiceKind/String : Complete Main
Default : Нет
Forced : Нет
Аудио #2
Идентификатор : 3
Формат : MPEG Audio
Версия формата : Version 1
Профиль формата : Layer 2
Идентификатор кодека : A_MPEG/L2
Идентификатор кодека/Подсказка : MP2
Продолжительность : 44 м. 58 с.
Вид битрейта : Постоянный
Битрейт : 192 Кбит/сек
Каналы : 2 канала
Частота : 48,0 КГц
Частота кадров : 41,667 кадра/сек (1152 spf)
Метод сжатия : С потерями
Размер потока : 61,8 Мбайт (4%)
Язык : English
Default : Нет
Forced : Нет
Скриншоты:

Дополнительные скриншоты:

Все одноименные релизы в КлубеВремя раздачи: с 18:00 до 23:00 (до появления первых 3-5 скачавших)

If you like the topic, please click share to help develop our site.

To download the file disable ad blocking, and reload the page.

disable adblock How to disable ad blocking?

Download by magnet link 1.42 GB Download Torrent

Login using:

Similar topics



   
Current time is: 18-Jul 12:11 :: All times are UTC + 3