- Эхо джунглей / Echoes from the Jungle (2006) SATRip (1-11 серии из 13) - Производство: Индия
Жанр: Документальный, природа, флора, фауна
Режиссер: Раджеш Беди
Описание:
35 летний опыт, отмеченный многочисленными наградами, три года изнурительного и кропотливого исследования дикой природы Индии увенчали грандиозные усилия известных режиссеров Нареша и Раджеша Беди мировым успехом созданного ими документального сериала «Эхо джунглей».
Продолжительность: 11 x ~00:25:00
Качество видео: SATRip
Перевод: Одноголосый закадровый, профессиональный
Видео: Xvid, 720x400, ~1800 kbps
Аудио: MP3, 2 ch, 128 kbps, CBR

Mediainfo: (тех. данные всех серий идентичны)

Общее
Полное имя : F:\КИНО\Эхо джунглей\01. Эхо джунглей. РЕВУЩИЙ ОЛЕНЬ.avi
Формат : AVI
Формат/Информация : Audio Video Interleave
Размер файла : 358 Мбайт
Продолжительность : 24 м. 58 с.
Общий поток : 2003 Кбит/сек
Программа кодирования : Lavf54.63.104
Видео
Идентификатор : 0
Формат : xvid
Идентификатор кодека : xvid
Продолжительность : 24 м. 58 с.
Битрейт : 1798 Кбит/сек
Ширина : 720 пикселей
Высота : 400 пикселей
Соотношение сторон : 16:9
Частота кадров : 25,000 кадров/сек
Тип развёртки : Прогрессивная
Бит/(Пиксели*Кадры) : 0.250
Размер потока : 321 Мбайт (90%)
Аудио
Идентификатор : 1
Формат : MPEG Audio
Версия формата : Version 1
Профиль формата : Layer 3
Режим : Joint stereo
Расширение режима : MS Stereo
Идентификатор кодека : 55
Идентификатор кодека/Подсказка : MP3
Продолжительность : 24 м. 58 с.
Вид битрейта : Постоянный
Битрейт : 192 Кбит/сек
Каналы : 2 канала
Частота : 48,0 КГц
Метод сжатия : С потерями
Размер потока : 34,3 Мбайт (10%)
Выравнивание : Соединение по промежуткам
Продолжительность промежутка : 24 мс. (0,60 видеокадр)

Дополнительная информация:

Перед зрителями открывается многообразие и красота природы Индии, полный приключений и открытий животный мир, страницы истории, исследования ученых, отношение к животным, труд и борьба простых жителей Индии по сохранению родной природы, а также удивительные истории о живущих в джунглях племенах.
«Эхо джунглей» - сериал из 13 получасовых фильмов, каждый из которых посвящен вымирающему виду животных.
Фильм привлекает внимание благодаря инновационному подходу в раскрытии и решении непростых тем.
Он стал гимном индийской природе, заботе, любви и справедливости, он показывает как малыми ресурсами можно решать большие задачи, над чем стоит задуматься, что беречь и почему это так важно для всех нас.

Список серий:

РЕВУЩИЙ ОЛЕНЬ
ДИКИЕ ЛОШАДИ СОЛЕНЫХ ПУСТЫНЬ
ОДИНОКИЙ ОХОТНИК
ТАНЦУЮЩИЙ ЖУРАВЛЬ
ЖИВОЙ БОГ ГАНЕША
ПЛЕМЯ БИШНОИ - ОХРАННИКИ ДИКОЙ ПРИРОДЫ
ИНДИЙСКИЙ НОСОРОГ РИНО
РАДЖА-ХАН – ЛЕБЕДЬ ИНДИИ
ПРИБЫТИЕ ОЛИВКОВЫХ ЧЕРЕПАХ
КОЗЫ ГОЛУБЫХ ГОР
ЛЕВ ГИР – ПОСЛЕДНЕЕ УБЕЖИЩЕ
ЧЕЛОВЕК В МАНГРОВЫХ ЗАРОСЛЯХ

Внимание! Раздача ведётся путём добавления новых серий

При каждом добавлении создается новый торрент. Чтобы начать докачку новой серии, пользователям необходимо сделать следующее:
(1) остановить скачивание,
(2) удалить старый торрент у себя из клиента (старые серии удалять не надо),
(3) скачать новый торрент и запустить его у себя в клиенте вместо старого, при этом указать клиенту путь в старую папку куда и должно происходить скачивание новых серий.
Ваш клиент при этом должен произвести хеширование (проверку) старой папки (если не производит сам - помогите ему сделать это), и будет докачивать только те серии которых у вас ещё нет. Старые серии при этом не удаляются, а продолжают раздаваться!
Скриншоты:
Все одноименные релизы в КлубеВремя раздачи: с 18:00 до 23:00 (до появления первых 3-5 скачавших)

If you like the topic, please click share to help develop our site.

To download the file disable ad blocking, and reload the page.

disable adblock How to disable ad blocking?

Download by magnet link 3.75 GB Download Torrent

Login using:

Similar topics

Живые воды / Living waters (2015) HDRip [H.264/1080p-LQ] [VO]
 1.9 GB   0 | 1   13-Nov-18 00:40   6


   
Current time is: 20-Apr 06:13 :: All times are UTC + 3