- Молчание пчел / Silence of the Bees (2007) HDTVRip - Жанр: Документальный
Описание:
Этот фильм посвящен исследованию одной из тайн сегодняшнего естествознания. Начиная с зимы 2006 года миллионы пчел бесследно исчезли из свои ульев. Экономический ущерб составил миллиарды долларов, отсутствие этих тружеников-опылителей в некоторых странах заставил задуматься о поставках продовольствия. Присоединяйтесь к исследователям, прошедшим путь от США до юга Франции, от холмов Испании к Англии, от Австралии к Китаю и далее, чтобы выяснить причины столь массовой гибели этих насекомых. Фильм будет интересен всем, кто интересуется глобальными экологическими проблемами. Отметим также, что "Молчание пчел" удостоен престижной награды Джорджа Фостера Пибоди в 2007 году как лучший документальный фильм для теле- и радиовещания.
Продолжительность: 00:48:50
Качество видео: HDTVRip
Перевод: Одноголосый закадровый, профессиональный
Субтитры: Отсутствуют
Видео: Xvid, 1280x720, ~4587 Kbps
Аудио: AC3, 2 ch, 192 Kbps

Mediainfo:

Общее
Полное имя : D:\Molchanie.pchel.2007.XviD.HDTVRip.avi
Формат : AVI
Формат/Информация : Audio Video Interleave
Размер файла : 1,63 Гбайт
Продолжительность : 48 м. 50 с.
Общий поток : 4790 Кбит/сек
Программа кодирования : VirtualDubMod 1.5.4.1 (build 2178/release)
Библиотека кодирования : VirtualDubMod build 2178/release
Видео
Идентификатор : 0
Формат : MPEG-4 Visual
Профиль формата : Advanced [email protected]
Параметр BVOP формата : 1
Параметр QPel формата : Нет
Параметр GMC формата : Без точки перехода
Параметр матрицы формата : Default (H.263)
Режим смешивания : Сжатый битовый поток
Идентификатор кодека : XVID
Идентификатор кодека/Подсказка : XviD
Продолжительность : 48 м. 50 с.
Битрейт : 4587 Кбит/сек
Ширина : 1280 пикселей
Высота : 720 пикселей
Соотношение сторон : 16:9
Частота кадров : 29,970 (30000/1001) кадров/сек
Цветовое пространство : YUV
Субдискретизация насыщенности : 4:2:0
Битовая глубина : 8 бит
Тип развёртки : Прогрессивная
Метод сжатия : С потерями
Бит/(Пиксели*Кадры) : 0.166
Размер потока : 1,56 Гбайт (96%)
Библиотека кодирования : XviD 1.2.0.dev47 (UTC 2006-11-01)
Аудио
Идентификатор : 1
Формат : AC-3
Формат/Информация : Audio Coding 3
Параметр Endianness формата : Big
Идентификатор кодека : 2000
Продолжительность : 48 м. 50 с.
Вид битрейта : Постоянный
Битрейт : 192 Кбит/сек
Каналы : 2 канала
Расположение каналов : Front: L R
Частота : 48,0 КГц
Частота кадров : 31,250 кадров/сек (1536 spf)
Битовая глубина : 16 бит
Метод сжатия : С потерями
Размер потока : 67,1 Мбайт (4%)
Выравнивание : Соединение по промежуткам
Продолжительность промежутка : 33 мс. (1,00 видеокадр)
Время предзагрузки промежутка : 512 мс.
ServiceKind/String : Complete Main
Скриншоты:
Все одноименные релизы в КлубеВремя раздачи: 24/7 (круглосуточно) (до появления первых 3-5 скачавших)

If you like the topic, please click share to help develop our site.

To download the file disable ad blocking, and reload the page.

disable adblock How to disable ad blocking?

Download by magnet link 1.63 GB Download Torrent

Login using:

Similar topics

Живые воды / Living waters (2015) HDRip [H.264/1080p-LQ] [VO]
 1.9 GB   1 | 1   13-Nov-18 00:40   6


   
Current time is: 18-Jul 09:41 :: All times are UTC + 3