- Николай Дроздов. Шесть мангустов, семь кобр и один полускорпион (2017) WEB-DLRip [H.264/1080p-LQ] - Телекомпания: Россия, Т/К Останкино, Первый канал
Жанр: Документальный, биография
Режиссер: Татьяна Варданян
Участники: Николай Дроздов, Елена Дроздова, Филарет Дроздов, Елена Малышева, Никас Сафронов, Константин Мирошник, Леонид Аникеев, Максим Покровский, Александр Аболиц, Алексей Лапин
Описание:
Нет такого телезрителя, который бы не знал программы «В мире животных»! Нет такого человека, который бы не слышал имени — Николай Николаевич Дроздов. Ученому-биологу и популярному телеведущему исполняется 80 лет. Николай Николаевич — это уже бренд, и это имя неразрывно связано с программой о животных, хотя на телевидение Николай Николаевич попал случайно.
Релиз от: рип boba88
Продолжительность: 00:50:11
Качество видео: WEB-DLRip
Субтитры: отсутствуют
Видео: AVC/H.264, 1920 x 1080, ~3227 Kbps
Аудио: AAC, 2 ch, 126 Kbps

Mediainfo:

Общее
Уникальный идентификатор : 193898226318824422283756467490199114981 (0x91DF70A55A96C72B887F256A94BF14E5)
Полное имя : F:\КИНО\Николай Дроздов. Шесть мангустов, семь кобр и один полускорпион.mkv
Формат : Matroska
Версия формата : Version 4 / Version 2
Размер файла : 1,18 Гбайт
Продолжительность : 50 м. 11 с.
Общий поток : 3355 Кбит/сек
Дата кодирования : UTC 2017-06-18 09:09:34
Программа кодирования : mkvmerge v12.0.0 ('Trust / Lust') 64bit
Библиотека кодирования : libebml v1.3.4 + libmatroska v1.4.5
Видео
Идентификатор : 1
Формат : AVC
Формат/Информация : Advanced Video Codec
Профиль формата : [email protected]
Параметр CABAC формата : Да
Параметр ReFrames формата : 2 кадра
Идентификатор кодека : V_MPEG4/ISO/AVC
Продолжительность : 50 м. 11 с.
Битрейт : 3227 Кбит/сек
Ширина : 1920 пикселей
Высота : 1080 пикселей
Соотношение сторон : 16:9
Режим частоты кадров : Постоянный
Частота кадров : 25,000 кадров/сек
Цветовое пространство : YUV
Субдискретизация насыщенности : 4:2:0
Битовая глубина : 8 бит
Тип развёртки : Прогрессивная
Бит/(Пиксели*Кадры) : 0.062
Размер потока : 1,13 Гбайт (96%)
Default : Да
Forced : Нет
Цветовой диапазон : Limited
Основные цвета : BT.709
Характеристики трансфера : BT.709
Коэффициенты матрицы : BT.709
Аудио
Идентификатор : 2
Формат : AAC
Формат/Информация : Advanced Audio Codec
Профиль формата : LC
Идентификатор кодека : A_AAC
Продолжительность : 50 м. 11 с.
Битрейт : 126 Кбит/сек
Каналы : 2 канала
Расположение каналов : Front: L R
Частота : 44,1 КГц
Частота кадров : 43,066 кадра/сек (1024 spf)
Метод сжатия : С потерями
Размер потока : 45,1 Мбайт (4%)
Default : Да
Forced : Нет

Дополнительная информация:

Николай Николаевич Дроздов (род. 20 июня 1937 года, Москва) — советский и российский учёный-зоолог и зоогеограф, доктор биологических наук, кандидат географических наук, профессор МГУ, общественный деятель, телеведущий и радиоведущий. Член экспертного совета национальной премии «Хрустальный компас», член медиасовета Русского географического общества, путешественник, актёр, сценарист, писатель и журналист.
С 1975 года является ведущим телепередачи «В мире животных».
Скриншоты:
Все одноименные релизы в КлубеВремя раздачи: с 18:00 до 23:00 (до появления первых 3-5 скачавших)

If you like the topic, please click share to help develop our site.

To download the file disable ad blocking, and reload the page.

disable adblock How to disable ad blocking?

Download by magnet link 1.18 GB Download Torrent

Login using:

Similar topics

Живые воды / Living waters (2015) HDRip [H.264/1080p-LQ] [VO]
 1.9 GB   6 | 1   13-Nov-18 00:40   6


   
Current time is: 17-Feb 17:07 :: All times are UTC + 3