Death's Forsaken / I Evoke the Cryptic Darkness
Жанр: Death/ Doom Metal
Носитель: CD
Страна-производитель диска (релиза): Mexico
Год издания: 2015
Издатель (лейбл): Ablaze Productions
Номер по каталогу: ABP 073
Страна исполнителя (группы): Mexico
Аудиокодек: FLAC (*.flac)
Тип рипа: image+.cue
Битрейт аудио: lossless
Продолжительность: 24:07
Источник (релизер): Original CD
Наличие сканов в содержимом раздачи: да
Треклист:
1. I Evoke the Cryptic Darkness 06:16
2. Necroagnostic 05:53
3. Aeonic Entropy (The Chaotic Paragraphs) 04:51
4. Death’s Forsaken (The Somber Seeker) 07:07

Лог создания рипа

Exact Audio Copy V1.3 from 2. September 2016
EAC extraction logfile from 18. November 2017, 12:06
Death's Forsaken / I Evoke The Cryptic Darkness
Used drive : ATAPI DVD A DH16A6L Adapter: 1 ID: 2
Read mode : SecureUtilize accurate stream : YesDefeat audio cache : YesMake use of C2 pointers : No
Read offset correction : 6Overread into Lead-In and Lead-Out : NoFill up missing offset samples with silence : YesDelete leading and trailing silent blocks : NoNull samples used in CRC calculations : YesUsed interface : Native Win32 interface for Win NT & 2000
Used output format : User Defined EncoderSelected bitrate : 128 kBit/sQuality : HighAdd ID3 tag : NoCommand line compressor : C:\Program Files (x86)\FLAC\flac.exeAdditional command line options : -V -8 %source%
TOC of the extracted CD
Track | Start | Length | Start sector | End sector --------------------------------------------------------- 1 | 0:00.00 | 6:16.24 | 0 | 28223 2 | 6:16.24 | 5:52.66 | 28224 | 54689 3 | 12:09.15 | 4:50.67 | 54690 | 76506 4 | 17:00.07 | 7:07.17 | 76507 | 108548
Range status and errors
Selected range
Filename E:\Temp Documents\из И-Нета\TORRENTS\Раздача\Death's Forsaken\2015 I Evoke The Cryptic Darkness\Death's Forsaken - I Evoke The Cryptic Darkness.wav
Peak level 97.1 % Extraction speed 4.7 X Range quality 100.0 % Test CRC 45F8AFD3 Copy CRC 45F8AFD3 Copy OK
No errors occurred
End of status report
---- CUETools DB Plugin V2.1.6
[CTDB TOCID: vC1MwsOfS905sg303rgslDrDb7M-] disk not present in databaseSubmit result: vC1MwsOfS905sg303rgslDrDb7M- has been uploaded
==== Log checksum 3A4FDD08D23FC7CB808E8FBDCA6D380D25E12A858B7AFC03EAE330976928220E ====

Содержание индексной карты (.CUE)

REM GENRE "Death/ Doom Metal"REM DATE 2015REM DISCID 2405A704REM COMMENT "ExactAudioCopy v1.3"PERFORMER "Death's Forsaken"TITLE "I Evoke The Cryptic Darkness"REM COMPOSER ""FILE "Death's Forsaken - I Evoke The Cryptic Darkness.flac" WAVE  TRACK 01 AUDIO    TITLE "I Evoke The Cryptic Darkness"    PERFORMER "Death's Forsaken"    REM COMPOSER ""    INDEX 01 00:00:00  TRACK 02 AUDIO    TITLE "Necroagnostic"    PERFORMER "Death's Forsaken"    REM COMPOSER ""    INDEX 01 06:16:24  TRACK 03 AUDIO    TITLE "Aeonic Entropy (The Chaotic Paragraphs)"    PERFORMER "Death's Forsaken"    REM COMPOSER ""    INDEX 01 12:09:15  TRACK 04 AUDIO    TITLE "Death's Forsaken (The Somber Seeker)"    PERFORMER "Death's Forsaken"    REM COMPOSER ""    INDEX 01 17:00:07

To download the file disable ad blocking, and reload the page.

disable adblock How to disable ad blocking?

Download by magnet link 241 MB Download Torrent

Login using:

Similar topics

(Death / Doom Metal) Superstatic - Key to the Abyss - 2018, MP3, 320 kbps
 112 MB   0 | 0   08-Jun-18 14:30   0


   
Current time is: 16-Nov 00:39 :: All times are UTC + 3