303 Project / Electronic
Жанр: Drum n Bass
Носитель: CD
Год издания: 2008
Издатель (лейбл): KDK Records
Номер по каталогу: CDK01394
Аудиокодек: FLAC (*.flac)
Тип рипа: tracks+.cue
Битрейт аудио: lossless
Продолжительность: 01:18:00
Источник (релизер): собственный рип
Наличие сканов в содержимом раздачи: да
Треклист:
01. 303 Project - Крылья (feat. Неба Жители) [08:01]
02. 303 Project - Тишина (feat. Stim Axel) [06:23]
03. 303 Project - Electronic [09:58]
04. 303 Project - Alex F [06:57]
05. 303 Project - Winnie The Pooh [04:30]
06. 303 Project - 3545430457,456234 [05:44]
07. 303 Project - Mista Twista [05:59]
08. 303 Project - James Bond [05:33]
09. 303 Project - Make Some Noise [09:05]
10. 303 Project - The Score [06:04]
11. 303 Project - Smith And Wesson [05:30]
12. 303 Project - Creator (Dissident Remix) [04:21]

Лог создания рипа

Exact Audio Copy V1.3 from 2. September 2016
EAC extraction logfile from 18. November 2017, 9:14
303 Project / Electronic
Used drive : ASUS DRW-24B5ST Adapter: 6 ID: 0
Read mode : SecureUtilize accurate stream : YesDefeat audio cache : YesMake use of C2 pointers : No
Read offset correction : 6Overread into Lead-In and Lead-Out : NoFill up missing offset samples with silence : YesDelete leading and trailing silent blocks : NoNull samples used in CRC calculations : YesUsed interface : Installed external ASPI interfaceGap handling : Appended to previous track
Used output format : User Defined EncoderSelected bitrate : 128 kBit/sQuality : HighAdd ID3 tag : NoCommand line compressor : D:\flac-1.3.2-win\win64\flac.exeAdditional command line options : -8 -V -T "ARTIST=%artist%" -T "TITLE=%title%" -T "ALBUM=%albumtitle%" -T "DATE=%year%" -T "TRACKNUMBER=%tracknr%" -T "GENRE=%genre%" -T "COMMENT=ripped by Andy aka yetiisyou" %source%
TOC of the extracted CD
Track | Start | Length | Start sector | End sector --------------------------------------------------------- 1 | 0:00.00 | 8:00.65 | 0 | 36064 2 | 8:00.65 | 6:22.72 | 36065 | 64786 3 | 14:23.62 | 9:57.67 | 64787 | 109628 4 | 24:21.54 | 6:56.49 | 109629 | 140877 5 | 31:18.28 | 4:29.18 | 140878 | 161070 6 | 35:47.46 | 5:43.12 | 161071 | 186807 7 | 41:30.58 | 5:58.13 | 186808 | 213670 8 | 47:28.71 | 5:32.60 | 213671 | 238630 9 | 53:01.56 | 9:04.08 | 238631 | 279438 10 | 62:05.64 | 6:04.00 | 279439 | 306738 11 | 68:09.64 | 5:29.35 | 306739 | 331448 12 | 73:39.24 | 4:20.19 | 331449 | 350967
Track 1
Filename E:\!Ripped by Andy aka yetiisyou\303 Project - Electronic [CDK01394] [2008]\01. 303 Project - Крылья (Feat. Небажители).wav
Pre-gap length 0:00:02.00
Peak level 99.6 % Extraction speed 5.3 X Track quality 100.0 % Test CRC 5D77C937 Copy CRC 5D77C937 Track not present in AccurateRip database Copy OK
Track 2
Filename E:\!Ripped by Andy aka yetiisyou\303 Project - Electronic [CDK01394] [2008]\02. 303 Project - Тишина (Feat. Stim Axel).wav
Peak level 99.6 % Extraction speed 6.0 X Track quality 100.0 % Test CRC FC124F84 Copy CRC FC124F84 Track not present in AccurateRip database Copy OK
Track 3
Filename E:\!Ripped by Andy aka yetiisyou\303 Project - Electronic [CDK01394] [2008]\03. 303 Project - Electrinic.wav
Peak level 99.6 % Extraction speed 7.0 X Track quality 100.0 % Test CRC 25B7FB2D Copy CRC 25B7FB2D Track not present in AccurateRip database Copy OK
Track 4
Filename E:\!Ripped by Andy aka yetiisyou\303 Project - Electronic [CDK01394] [2008]\04. 303 Project - Axel F.wav
Peak level 99.6 % Extraction speed 6.6 X Track quality 99.9 % Test CRC D59B8B53 Copy CRC D59B8B53 Track not present in AccurateRip database Copy OK
Track 5
Filename E:\!Ripped by Andy aka yetiisyou\303 Project - Electronic [CDK01394] [2008]\05. 303 Project - Winnie The Pooh.wav
Peak level 99.6 % Extraction speed 6.3 X Track quality 99.9 % Test CRC 5E0384E5 Copy CRC 5E0384E5 Track not present in AccurateRip database Copy OK
Track 6
Filename E:\!Ripped by Andy aka yetiisyou\303 Project - Electronic [CDK01394] [2008]\06. 303 Project - 3545430457,456234.wav
Peak level 99.6 % Extraction speed 8.1 X Track quality 100.0 % Test CRC CC5FE2F8 Copy CRC CC5FE2F8 Track not present in AccurateRip database Copy OK
Track 7
Filename E:\!Ripped by Andy aka yetiisyou\303 Project - Electronic [CDK01394] [2008]\07. 303 Project - Mista Twista.wav
Peak level 99.6 % Extraction speed 8.6 X Track quality 100.0 % Test CRC 1CE4D335 Copy CRC 1CE4D335 Track not present in AccurateRip database Copy OK
Track 8
Filename E:\!Ripped by Andy aka yetiisyou\303 Project - Electronic [CDK01394] [2008]\08. 303 Project - James Bond.wav
Peak level 99.6 % Extraction speed 8.8 X Track quality 100.0 % Test CRC B96D1A9E Copy CRC B96D1A9E Track not present in AccurateRip database Copy OK
Track 9
Filename E:\!Ripped by Andy aka yetiisyou\303 Project - Electronic [CDK01394] [2008]\09. 303 Project - Make Some Noise.wav
Peak level 99.6 % Extraction speed 9.7 X Track quality 100.0 % Test CRC 5DA51EA9 Copy CRC 5DA51EA9 Track not present in AccurateRip database Copy OK
Track 10
Filename E:\!Ripped by Andy aka yetiisyou\303 Project - Electronic [CDK01394] [2008]\10. 303 Project - The Score.wav
Peak level 99.6 % Extraction speed 9.8 X Track quality 100.0 % Test CRC 13A57899 Copy CRC 13A57899 Track not present in AccurateRip database Copy OK
Track 11
Filename E:\!Ripped by Andy aka yetiisyou\303 Project - Electronic [CDK01394] [2008]\11. 303 Project - Smith And Wesson.wav
Peak level 99.6 % Extraction speed 10.0 X Track quality 100.0 % Test CRC 3670BFE8 Copy CRC 3670BFE8 Track not present in AccurateRip database Copy OK
Track 12
Filename E:\!Ripped by Andy aka yetiisyou\303 Project - Electronic [CDK01394] [2008]\12. 303 Project - Creator (Dissident Remix).wav
Peak level 99.6 % Extraction speed 8.2 X Track quality 99.9 % Test CRC 8527F06A Copy CRC 8527F06A Track not present in AccurateRip database Copy OK
None of the tracks are present in the AccurateRip database
No errors occurred
End of status report
---- CUETools DB Plugin V2.1.6
[CTDB TOCID: hTsdoN_W0monpZCX._Lz8eM_qQM-] foundSubmit result: hTsdoN_W0monpZCX._Lz8eM_qQM- has been confirmedTrack | CTDB Status 1 | (2/2) Accurately ripped 2 | (2/2) Accurately ripped 3 | (2/2) Accurately ripped 4 | (2/2) Accurately ripped 5 | (2/2) Accurately ripped 6 | (2/2) Accurately ripped 7 | (2/2) Accurately ripped 8 | (2/2) Accurately ripped 9 | (2/2) Accurately ripped 10 | (2/2) Accurately ripped 11 | (2/2) Accurately ripped 12 | (2/2) Accurately ripped
==== Log checksum AD8A752EE0BD923BCB41A82550D78B33E847CA14C1C225267152B278119565F4 ====

Содержание индексной карты (.CUE)

REM GENRE ElectronicREM DATE 2008REM DISCID AD12470CREM COMMENT "ExactAudioCopy v1.3"PERFORMER "303 Project"TITLE "Electronic"REM COMPOSER ""FILE "01. 303 Project - Крылья (Feat. Небажители).wav" WAVE  TRACK 01 AUDIO    TITLE "Крылья (Feat. Небажители)"    PERFORMER "303 Project"    REM COMPOSER ""    INDEX 01 00:00:00FILE "02. 303 Project - Тишина (Feat. Stim Axel).wav" WAVE  TRACK 02 AUDIO    TITLE "Тишина (Feat. Stim Axel)"    PERFORMER "303 Project"    REM COMPOSER ""    INDEX 01 00:00:00FILE "03. 303 Project - Electrinic.wav" WAVE  TRACK 03 AUDIO    TITLE "Electrinic"    PERFORMER "303 Project"    REM COMPOSER ""    INDEX 01 00:00:00FILE "04. 303 Project - Axel F.wav" WAVE  TRACK 04 AUDIO    TITLE "Axel F"    PERFORMER "303 Project"    REM COMPOSER ""    INDEX 01 00:00:00FILE "05. 303 Project - Winnie The Pooh.wav" WAVE  TRACK 05 AUDIO    TITLE "Winnie The Pooh"    PERFORMER "303 Project"    REM COMPOSER ""    INDEX 01 00:00:00FILE "06. 303 Project - 3545430457,456234.wav" WAVE  TRACK 06 AUDIO    TITLE "3545430457,456234"    PERFORMER "303 Project"    REM COMPOSER ""    INDEX 01 00:00:00FILE "07. 303 Project - Mista Twista.wav" WAVE  TRACK 07 AUDIO    TITLE "Mista Twista"    PERFORMER "303 Project"    REM COMPOSER ""    INDEX 01 00:00:00FILE "08. 303 Project - James Bond.wav" WAVE  TRACK 08 AUDIO    TITLE "James Bond"    PERFORMER "303 Project"    REM COMPOSER ""    INDEX 01 00:00:00FILE "09. 303 Project - Make Some Noise.wav" WAVE  TRACK 09 AUDIO    TITLE "Make Some Noise"    PERFORMER "303 Project"    REM COMPOSER ""    INDEX 01 00:00:00FILE "10. 303 Project - The Score.wav" WAVE  TRACK 10 AUDIO    TITLE "The Score"    PERFORMER "303 Project"    REM COMPOSER ""    INDEX 01 00:00:00FILE "11. 303 Project - Smith And Wesson.wav" WAVE  TRACK 11 AUDIO    TITLE "Smith And Wesson"    PERFORMER "303 Project"    REM COMPOSER ""    INDEX 01 00:00:00FILE "12. 303 Project - Creator (Dissident Remix).wav" WAVE  TRACK 12 AUDIO    TITLE "Creator (Dissident Remix)"    PERFORMER "303 Project"    REM COMPOSER ""    INDEX 01 00:00:00

To download the file disable ad blocking, and reload the page.

disable adblock How to disable ad blocking?

Download by magnet link 577 MB Download Torrent

Login using:



   
Current time is: 20-Sep 01:39 :: All times are UTC ± 0