Clearlight / Forever Blowing Bubbles
Жанр: Jazz-Rock, Prog Rock
Носитель: CD
Страна-производитель диска (релиза): Japan
Год издания: 1975/1989
Издатель (лейбл): Virgin Japan
Номер по каталогу: VJD-5025
Страна исполнителя (группы): France
Аудиокодек: WavPack (*.wv)
Тип рипа: image+.cue
Битрейт аудио: lossless
Продолжительность: 00:37:12
Источник (релизер): pqsyerg
Наличие сканов в содержимом раздачи: нет
Треклист:
1 Chanson
2 Without Words
3 Way
4 Ergotrip
5 Et Pendant Ce Temps La
6 Narcisse Et Goldmund
7 Jungle Bubbles

Лог создания рипа

Exact Audio Copy V1.0 beta 3 from 29. August 2011
EAC extraction logfile from 18. June 2017, 22:04
Clearlight / Forever Blowing Bubbles
Used drive : MATSHITADVD-RAM UJ8B1AS Adapter: 0 ID: 1
Read mode : SecureUtilize accurate stream : YesDefeat audio cache : YesMake use of C2 pointers : No
Read offset correction : 6Overread into Lead-In and Lead-Out : NoFill up missing offset samples with silence : YesDelete leading and trailing silent blocks : NoNull samples used in CRC calculations : YesUsed interface : Native Win32 interface for Win NT & 2000
Used output format : User Defined EncoderSelected bitrate : 896 kBit/sQuality : HighAdd ID3 tag : YesCommand line compressor : D:\DISTRIBUTIVE\WavPack\wavpack-4.80.0-x64\wavpack.exeAdditional command line options : -hm -w "Year=%year%" -w "Genre=%genre%" %source% %dest%
TOC of the extracted CD
Track | Start | Length | Start sector | End sector --------------------------------------------------------- 1 | 0:00.37 | 4:43.65 | 37 | 21326 2 | 4:44.27 | 7:40.70 | 21327 | 55896 3 | 12:25.22 | 8:15.68 | 55897 | 93089 4 | 20:41.15 | 6:24.37 | 93090 | 121926 5 | 27:05.52 | 4:42.43 | 121927 | 143119 6 | 31:48.20 | 2:39.30 | 143120 | 155074 7 | 34:27.50 | 2:44.62 | 155075 | 167436
Range status and errors
Selected range
Filename D:\MUSIC\1975 Clearlight - Forever Blowing Bubbles [1989,Virgin - VJD-5025,Japan,CD]\1975 Clearlight - Forever Blowing Bubbles [1989,Virgin - VJD-5025,Japan,CD].wav
Peak level 92.1 % Extraction speed 2.9 X Range quality 100.0 % Test CRC 9DCA19F2 Copy CRC 9DCA19F2 Copy OK
No errors occurred
AccurateRip summary
Track 1 accurately ripped (confidence 1) [D647B7A2] (AR v1)Track 2 accurately ripped (confidence 1) [D0D66981] (AR v1)Track 3 accurately ripped (confidence 1) [BB0BD2E2] (AR v1)Track 4 accurately ripped (confidence 1) [C4EEEADD] (AR v1)Track 5 accurately ripped (confidence 1) [06304038] (AR v1)Track 6 accurately ripped (confidence 1) [771F9460] (AR v1)Track 7 accurately ripped (confidence 1) [A875F6E0] (AR v1)
All tracks accurately ripped
End of status report
==== Log checksum CD2B4992A80575E68008E64BFA85D53A5414958AE8C0CDAEC3C957EB9A357CA2 ====

Содержание индексной карты (.CUE)

REM GENRE "Progressive Rock"REM DATE 1975REM DISCID 5A08B807REM COMMENT "ExactAudioCopy v1.0b3"PERFORMER "Clearlight"TITLE "Forever Blowing Bubbles"FILE "1975 Clearlight - Forever Blowing Bubbles [1989,Virgin - VJD-5025,Japan,CD].wv" WAVE  TRACK 01 AUDIO    TITLE "Chanson"    PERFORMER "Clearlight"    INDEX 00 00:00:00    INDEX 01 00:00:37  TRACK 02 AUDIO    TITLE "Without Words"    PERFORMER "Clearlight"    INDEX 01 04:44:27  TRACK 03 AUDIO    TITLE "Way"    PERFORMER "Clearlight"    INDEX 00 12:24:58    INDEX 01 12:25:22  TRACK 04 AUDIO    TITLE "Ergotrip"    PERFORMER "Clearlight"    INDEX 00 20:38:52    INDEX 01 20:41:15  TRACK 05 AUDIO    TITLE "Et pendant ce temps la"    PERFORMER "Clearlight"    INDEX 00 27:05:50    INDEX 01 27:05:52  TRACK 06 AUDIO    TITLE "Narcisse et Goldmund"    PERFORMER "Clearlight"    INDEX 01 31:48:20  TRACK 07 AUDIO    TITLE "Jungle Bubbles"    PERFORMER "Clearlight"    INDEX 00 34:27:14    INDEX 01 34:27:50

DR 13

foobar2000 1.3.9 / Dynamic Range Meter 1.1.1log date: 2017-11-18 10:48:27
--------------------------------------------------------------------------------Analyzed: Clearlight / Forever Blowing Bubbles--------------------------------------------------------------------------------
DR Peak RMS Duration Track--------------------------------------------------------------------------------DR13 -3.60 dB -21.68 dB 4:44 01-ChansonDR14 -1.76 dB -20.53 dB 7:41 02-Without WordsDR14 -0.71 dB -18.26 dB 8:16 03-WayDR13 -1.31 dB -18.28 dB 6:24 04-ErgotripDR14 -2.40 dB -19.90 dB 4:43 05-Et pendant ce temps laDR12 -4.24 dB -20.64 dB 2:39 06-Narcisse et GoldmundDR13 -4.93 dB -21.02 dB 2:45 07-Jungle Bubbles--------------------------------------------------------------------------------
Number of tracks: 7Official DR value: DR13
Samplerate: 44100 HzChannels: 2Bits per sample: 16Bitrate: 705 kbpsCodec: WavPack================================================================================

Об альбоме (сборнике)

Японский первопресс.
Альбом уже представлен на трекере:
- французский ремастер Spalax Music SPALAXCD14593
- японское ремастированное издание Captain Trip CTCD-633
- французское неремастированное издание Mantra MANTRA 045
Описание на Discogs

To download the file disable ad blocking, and reload the page.

disable adblock How to disable ad blocking?

Download by magnet link 195 MB Download Torrent

Login using:

Similar topics



   
Current time is: 20-Nov 14:53 :: All times are UTC + 3