Grits / As The World Grits
Жанр: Prog Rock, Jam Rock
Носитель: CD
Страна-производитель диска (релиза): USA
Год издания: 1970/1994
Издатель (лейбл): Cuneiform Records
Номер по каталогу: 55008
Страна исполнителя (группы): US
Аудиокодек: WavPack (*.wv)
Тип рипа: image+.cue
Битрейт аудио: lossless
Продолжительность: 00:47:55
Источник (релизер): pqsyerg
Наличие сканов в содержимом раздачи: нет
Треклист:
1 Easy For You
2 Back To The Suburbs
3 Plastic Hits
4 Plastic Jam
5 Never Mind
6 Hyattsville Hospital
7 The Night You Told Me (My Body Was A Must)
8 Distraction
9 Beef The Diver
10 Glad All Over
11 Scared So
12 Probably Nothing
13 Pine Street

Лог создания рипа

Exact Audio Copy V1.0 beta 3 from 29. August 2011
EAC extraction logfile from 18. August 2017, 10:38
Grits / As The World Grits
Used drive : MATSHITADVD-RAM UJ8B1AS Adapter: 0 ID: 1
Read mode : SecureUtilize accurate stream : YesDefeat audio cache : YesMake use of C2 pointers : No
Read offset correction : 6Overread into Lead-In and Lead-Out : NoFill up missing offset samples with silence : YesDelete leading and trailing silent blocks : NoNull samples used in CRC calculations : YesUsed interface : Native Win32 interface for Win NT & 2000
Used output format : User Defined EncoderSelected bitrate : 896 kBit/sQuality : HighAdd ID3 tag : YesCommand line compressor : D:\DISTRIBUTIVE\WavPack\wavpack-4.80.0-x64\wavpack.exeAdditional command line options : -hm -w "Year=%year%" -w "Genre=%genre%" %source% %dest%
TOC of the extracted CD
Track | Start | Length | Start sector | End sector --------------------------------------------------------- 1 | 0:00.00 | 3:25.00 | 0 | 15374 2 | 3:25.00 | 4:13.22 | 15375 | 34371 3 | 7:38.22 | 2:58.03 | 34372 | 47724 4 | 10:36.25 | 3:12.62 | 47725 | 62186 5 | 13:49.12 | 5:10.23 | 62187 | 85459 6 | 18:59.35 | 2:15.07 | 85460 | 95591 7 | 21:14.42 | 3:10.43 | 95592 | 109884 8 | 24:25.10 | 4:38.17 | 109885 | 130751 9 | 29:03.27 | 2:11.13 | 130752 | 140589 10 | 31:14.40 | 3:38.25 | 140590 | 156964 11 | 34:52.65 | 4:12.30 | 156965 | 175894 12 | 39:05.20 | 2:31.52 | 175895 | 187271 13 | 41:36.72 | 6:18.33 | 187272 | 215654
Range status and errors
Selected range
Filename D:\MUSIC\LOSSLESS\1970 Grits - As The World Grits [1994,Cuneiform – 55008,US,CD]\1970 Grits - As The World Grits [1994,Cuneiform – 55008,US,CD].wav
Peak level 98.8 % Extraction speed 4.1 X Range quality 100.0 % Test CRC 04911F3B Copy CRC 04911F3B Copy OK
No errors occurred
AccurateRip summary
Track 1 accurately ripped (confidence 2) [DF77AA2B] (AR v2)Track 2 accurately ripped (confidence 2) [6C95F8C9] (AR v2)Track 3 accurately ripped (confidence 2) [ECF70798] (AR v2)Track 4 accurately ripped (confidence 2) [BEBD19BD] (AR v2)Track 5 accurately ripped (confidence 2) [901B7FAF] (AR v2)Track 6 accurately ripped (confidence 2) [9DBA5B6C] (AR v2)Track 7 accurately ripped (confidence 2) [100D97E7] (AR v2)Track 8 accurately ripped (confidence 2) [4AF44B88] (AR v2)Track 9 accurately ripped (confidence 2) [F84C3157] (AR v2)Track 10 accurately ripped (confidence 2) [14431241] (AR v2)Track 11 accurately ripped (confidence 2) [7E64D17C] (AR v2)Track 12 accurately ripped (confidence 2) [D764FCC0] (AR v2)Track 13 accurately ripped (confidence 2) [B41AEF8B] (AR v2)
All tracks accurately ripped
End of status report
==== Log checksum F67E5683E33B10A6D895904F931CA0311D169FC7A3A116A536EEBB5DDFAED35F ====

Содержание индексной карты (.CUE)

REM GENRE "Progressive Rock"REM DATE 1993REM DISCID B80B3B0DREM COMMENT "ExactAudioCopy v1.0b3"PERFORMER "Grits"TITLE "As The World Grits"FILE "1970 Grits - As The World Grits [1994,Cuneiform - 55008,US,CD].wv" WAVE  TRACK 01 AUDIO    TITLE "Easy For You"    PERFORMER "Grits"    INDEX 01 00:00:00  TRACK 02 AUDIO    TITLE "Back To The Suburbs"    PERFORMER "Grits"    INDEX 00 03:21:72    INDEX 01 03:25:00  TRACK 03 AUDIO    TITLE "Plastic Hits"    PERFORMER "Grits"    INDEX 00 07:35:40    INDEX 01 07:38:22  TRACK 04 AUDIO    TITLE "Plastic Jam"    PERFORMER "Grits"    INDEX 01 10:36:25  TRACK 05 AUDIO    TITLE "Never Mind"    PERFORMER "Grits"    INDEX 01 13:49:12  TRACK 06 AUDIO    TITLE "Hyattsville Hospital"    PERFORMER "Grits"    INDEX 00 18:58:10    INDEX 01 18:59:35  TRACK 07 AUDIO    TITLE "The Night You Told Me (My Body Was A Must)"    PERFORMER "Grits"    INDEX 00 21:11:17    INDEX 01 21:14:42  TRACK 08 AUDIO    TITLE "Distraction"    PERFORMER "Grits"    INDEX 00 24:22:60    INDEX 01 24:25:10  TRACK 09 AUDIO    TITLE "Beef The Diver"    PERFORMER "Grits"    INDEX 00 29:01:37    INDEX 01 29:03:27  TRACK 10 AUDIO    TITLE "Glad All Over"    PERFORMER "Grits"    INDEX 00 31:13:00    INDEX 01 31:14:40  TRACK 11 AUDIO    TITLE "Scared So"    PERFORMER "Grits"    INDEX 00 34:50:52    INDEX 01 34:52:65  TRACK 12 AUDIO    TITLE "Probably Nothing"    PERFORMER "Grits"    INDEX 00 39:02:40    INDEX 01 39:05:20  TRACK 13 AUDIO    TITLE "Pine Street"    PERFORMER "Grits"    INDEX 00 41:34:22    INDEX 01 41:36:72

DR 11

foobar2000 1.3.9 / Dynamic Range Meter 1.1.1log date: 2017-11-18 10:17:35
--------------------------------------------------------------------------------Analyzed: Grits / As The World Grits--------------------------------------------------------------------------------
DR Peak RMS Duration Track--------------------------------------------------------------------------------DR9 -0.10 dB -11.85 dB 3:25 01-Easy For YouDR10 -0.10 dB -13.76 dB 4:13 02-Back To The SuburbsDR12 -0.10 dB -14.25 dB 2:58 03-Plastic HitsDR11 -0.38 dB -13.53 dB 3:13 04-Plastic JamDR11 -0.10 dB -14.14 dB 5:10 05-Never MindDR10 -0.61 dB -13.05 dB 2:15 06-Hyattsville HospitalDR13 -0.10 dB -15.17 dB 3:11 07-The Night You Told Me (My Body Was A Must)DR8 -0.10 dB -11.69 dB 4:38 08-DistractionDR11 -0.10 dB -13.95 dB 2:11 09-Beef The DiverDR12 -0.62 dB -15.70 dB 3:38 10-Glad All OverDR11 -1.00 dB -15.18 dB 4:12 11-Scared SoDR13 -0.10 dB -15.75 dB 2:32 12-Probably NothingDR11 -0.10 dB -14.38 dB 6:18 13-Pine Street--------------------------------------------------------------------------------
Number of tracks: 13Official DR value: DR11
Samplerate: 44100 HzChannels: 2Bits per sample: 16Bitrate: 852 kbpsCodec: WavPack================================================================================

Об альбоме (сборнике)

Единственное издание на CD
Описание на Discogs

To download the file disable ad blocking, and reload the page.

disable adblock How to disable ad blocking?

Download by magnet link 292 MB Download Torrent

Login using:

Similar topics



   
Current time is: 20-Sep 00:17 :: All times are UTC ± 0