The Shiver / Walpurgis
Жанр: Prog Rock, Psychedelic Rock, Hard Rock
Носитель: CD
Страна-производитель диска (релиза): South Korea
Год издания: 1969/2002
Издатель (лейбл): M2U Records
Номер по каталогу: M2U-1007
Страна исполнителя (группы): Switzerland
Аудиокодек: WavPack (*.wv)
Тип рипа: image+.cue
Битрейт аудио: lossless
Продолжительность: 00:34:25
Источник (релизер): pqsyerg
Наличие сканов в содержимом раздачи: нет
Треклист:
1 Repent Walpurgis
2 Ode To The Salvation Army
3 Leave This Man Alone
4 What's Wrong About The Blues
5 Hey Mr. Holy Man
6 Don't Let Me Be Misunderstood
7 No Time
8 The Peddle

Лог создания рипа

Exact Audio Copy V1.0 beta 3 from 29. August 2011
EAC extraction logfile from 21. May 2017, 19:53
Shiver / Walpurgis
Used drive : MATSHITADVD-RAM UJ8B1AS Adapter: 0 ID: 1
Read mode : SecureUtilize accurate stream : YesDefeat audio cache : YesMake use of C2 pointers : No
Read offset correction : 6Overread into Lead-In and Lead-Out : NoFill up missing offset samples with silence : YesDelete leading and trailing silent blocks : NoNull samples used in CRC calculations : YesUsed interface : Native Win32 interface for Win NT & 2000
Used output format : User Defined EncoderSelected bitrate : 896 kBit/sQuality : HighAdd ID3 tag : YesCommand line compressor : D:\DISTRIBUTIVE\WavPack\wavpack-4.80.0-x64\wavpack.exeAdditional command line options : -hm -w "Year=%year%" -w "Genre=%genre%" %source% %dest%
TOC of the extracted CD
Track | Start | Length | Start sector | End sector --------------------------------------------------------- 1 | 0:00.00 | 7:16.73 | 0 | 32772 2 | 7:16.73 | 0:40.21 | 32773 | 35793 3 | 7:57.19 | 5:22.58 | 35794 | 60001 4 | 13:20.02 | 5:22.11 | 60002 | 84162 5 | 18:42.13 | 3:19.43 | 84163 | 99130 6 | 22:01.56 | 4:46.18 | 99131 | 120598 7 | 26:47.74 | 2:50.45 | 120599 | 133393 8 | 29:38.44 | 4:46.47 | 133394 | 154890
Range status and errors
Selected range
Filename D:\MUSIC\1969 Shiver – Walpurgis [2002,M2U - M2U-1007,Korea,CD]\1969 Shiver – Walpurgis [2002,M2U - M2U-1007,Korea,CD].wav
Peak level 97.6 % Extraction speed 1.8 X Range quality 100.0 % Test CRC C8B56D83 Copy CRC C8B56D83 Copy OK
No errors occurred
AccurateRip summary
Track 1 accurately ripped (confidence 3) [CE925EFA] (AR v2)Track 2 accurately ripped (confidence 3) [BBD45E4B] (AR v2)Track 3 accurately ripped (confidence 3) [39978E25] (AR v2)Track 4 accurately ripped (confidence 3) [5FF8001B] (AR v2)Track 5 accurately ripped (confidence 3) [E7EA1CC7] (AR v2)Track 6 accurately ripped (confidence 3) [363065B2] (AR v2)Track 7 accurately ripped (confidence 3) [2D9BDF72] (AR v2)Track 8 accurately ripped (confidence 3) [B0745B20] (AR v2)
All tracks accurately ripped
End of status report
==== Log checksum 362862BD07EF8AABB7BE41BDF4F68AB62911D6D6AA83B76AB36EB65B043861E6 ====

Содержание индексной карты (.CUE)

REM GENRE Art-RockREM DATE 1969REM DISCID 60081108REM COMMENT "ExactAudioCopy v1.0b3"PERFORMER "Shiver"TITLE "Walpurgis"FILE "1969 Shiver - Walpurgis [2002,M2U - M2U-1007,Korea,CD].wv" WAVE  TRACK 01 AUDIO    TITLE "Repent Walpurgis"    PERFORMER "Shiver"    INDEX 01 00:00:00  TRACK 02 AUDIO    TITLE "Ode To The Salvation Army"    PERFORMER "Shiver"    INDEX 00 07:13:37    INDEX 01 07:16:73  TRACK 03 AUDIO    TITLE "Leave This Man Alone"    PERFORMER "Shiver"    INDEX 00 07:54:63    INDEX 01 07:57:19  TRACK 04 AUDIO    TITLE "What's Wrong About The Blues"    PERFORMER "Shiver"    INDEX 00 13:17:67    INDEX 01 13:20:02  TRACK 05 AUDIO    TITLE "Hey Mr. Holy Man"    PERFORMER "Shiver"    INDEX 00 18:39:73    INDEX 01 18:42:13  TRACK 06 AUDIO    TITLE "Don't Let Me Be Misunderstood"    PERFORMER "Shiver"    INDEX 00 22:00:14    INDEX 01 22:01:56  TRACK 07 AUDIO    TITLE "No Time"    PERFORMER "Shiver"    INDEX 00 26:46:19    INDEX 01 26:47:74  TRACK 08 AUDIO    TITLE "The Peddle"    PERFORMER "Shiver"    INDEX 00 29:37:41    INDEX 01 29:38:44

DR 7

foobar2000 1.3.9 / Dynamic Range Meter 1.1.1log date: 2017-11-18 09:32:50
--------------------------------------------------------------------------------Analyzed: Shiver / Walpurgis--------------------------------------------------------------------------------
DR Peak RMS Duration Track--------------------------------------------------------------------------------DR7 -0.21 dB -9.80 dB 7:17 01-Repent WalpurgisDR9 -0.30 dB -14.62 dB 0:40 02-Ode To The Salvation ArmyDR6 -0.29 dB -8.63 dB 5:23 03-Leave This Man AloneDR7 -0.21 dB -10.01 dB 5:22 04-What's Wrong About The BluesDR6 -0.30 dB -8.43 dB 3:20 05-Hey Mr. Holy ManDR7 -0.26 dB -9.16 dB 4:46 06-Don't Let Me Be MisunderstoodDR7 -0.21 dB -9.26 dB 2:51 07-No TimeDR7 -0.36 dB -9.11 dB 4:47 08-The Peddle--------------------------------------------------------------------------------
Number of tracks: 8Official DR value: DR7
Samplerate: 44100 HzChannels: 2Bits per sample: 16Bitrate: 902 kbpsCodec: WavPack================================================================================

Об альбоме (сборнике)

Южнокорейское издание.
На трекере также представлено издание Garden Of Delights CD 096
Описание на Discogs

To download the file disable ad blocking, and reload the page.

disable adblock How to disable ad blocking?

Download by magnet link 222 MB Download Torrent

Login using:

Similar topics



   
Current time is: 15-Nov 22:21 :: All times are UTC + 3