East Of Eden / Snafu
Жанр: Prog Rock
Носитель: CD
Страна-производитель диска (релиза): Japan
Год издания: 1970/1989
Издатель (лейбл): Deram/Polydor K,K.
Номер по каталогу: P25L-25060
Страна исполнителя (группы): UK
Аудиокодек: WavPack (*.wv)
Тип рипа: image+.cue
Битрейт аудио: lossless
Продолжительность: 00:42:37
Источник (релизер): pqsyerg
Наличие сканов в содержимом раздачи: нет
Треклист:
01 Have The Whack It Up
02 Leaping Beauties For Rudy
03 Xhorkom
04 Uno Transito Clapori
05 Gum Arabic
06 Nymphenberger
07 Habibi Baby
08 Traditional

Лог создания рипа

Exact Audio Copy V1.0 beta 3 from 29. August 2011
EAC extraction logfile from 5. August 2017, 15:12
East of Eden / Snafu
Used drive : MATSHITADVD-RAM UJ8B1AS Adapter: 0 ID: 1
Read mode : SecureUtilize accurate stream : YesDefeat audio cache : YesMake use of C2 pointers : No
Read offset correction : 6Overread into Lead-In and Lead-Out : NoFill up missing offset samples with silence : YesDelete leading and trailing silent blocks : NoNull samples used in CRC calculations : YesUsed interface : Native Win32 interface for Win NT & 2000
Used output format : User Defined EncoderSelected bitrate : 896 kBit/sQuality : HighAdd ID3 tag : YesCommand line compressor : D:\DISTRIBUTIVE\WavPack\wavpack-4.80.0-x64\wavpack.exeAdditional command line options : -hm -w "Year=%year%" -w "Genre=%genre%" %source% %dest%
TOC of the extracted CD
Track | Start | Length | Start sector | End sector --------------------------------------------------------- 1 | 0:00.37 | 2:19.18 | 37 | 10479 2 | 2:19.55 | 7:02.20 | 10480 | 42149 3 | 9:22.00 | 8:14.17 | 42150 | 79216 4 | 17:36.17 | 2:29.40 | 79217 | 90431 5 | 20:05.57 | 8:17.30 | 90432 | 127736 6 | 28:23.12 | 6:15.53 | 127737 | 155914 7 | 34:38.65 | 6:26.37 | 155915 | 184901 8 | 41:05.27 | 1:32.43 | 184902 | 191844
Range status and errors
Selected range
Filename D:\MUSIC\LOSSLESS\1970 East Of Eden – Snafu [1989,Polydor K.K. - P25L-25060,Japan,CD]\1970 East Of Eden – Snafu [1989,Polydor K.K. - P25L-25060,Japan,CD].wav
Peak level 87.5 % Extraction speed 1.9 X Range quality 99.9 % Test CRC 9B8F8405 Copy CRC 9B8F8405 Copy OK
No errors occurred
AccurateRip summary
Track 1 accurately ripped (confidence 2) [0F10EB56] (AR v1)Track 2 accurately ripped (confidence 2) [11969844] (AR v1)Track 3 accurately ripped (confidence 2) [AAF62E0B] (AR v1)Track 4 accurately ripped (confidence 2) [FF1CBA02] (AR v1)Track 5 accurately ripped (confidence 2) [9F1D79CB] (AR v1)Track 6 accurately ripped (confidence 2) [CEAB6F41] (AR v1)Track 7 accurately ripped (confidence 2) [DE5D2C0E] (AR v1)Track 8 accurately ripped (confidence 2) [C8CE661B] (AR v1)
All tracks accurately ripped
End of status report
==== Log checksum B2CE70F8AD9EBB4C43DDD731E9BC04207511303E5405C48ECEF0D0ED72A5FD54 ====

Содержание индексной карты (.CUE)

REM GENRE "Alt. Rock"REM DATE 1970REM DISCID 5909FD08REM COMMENT "ExactAudioCopy v1.0b3"PERFORMER "East of Eden"TITLE "Snafu"FILE "1970 East Of Eden - Snafu [1989,Polydor K.K. - P25L-25060,Japan,CD].wv" WAVE  TRACK 01 AUDIO    TITLE "Have The Whack It Up"    PERFORMER "East of Eden"    INDEX 00 00:00:00    INDEX 01 00:00:37  TRACK 02 AUDIO    TITLE "Leaping Beauties For Rudy"    PERFORMER "East of Eden"    INDEX 00 02:17:50    INDEX 01 02:19:55  TRACK 03 AUDIO    TITLE "Xhorkom"    PERFORMER "East of Eden"    INDEX 00 09:20:26    INDEX 01 09:22:00  TRACK 04 AUDIO    TITLE "Uno Transito Clapori"    PERFORMER "East of Eden"    INDEX 00 17:27:12    INDEX 01 17:36:17  TRACK 05 AUDIO    TITLE "Gum Arabic"    PERFORMER "East of Eden"    INDEX 00 20:01:62    INDEX 01 20:05:57  TRACK 06 AUDIO    TITLE "Nymphenberger"    PERFORMER "East of Eden"    INDEX 00 28:21:63    INDEX 01 28:23:12  TRACK 07 AUDIO    TITLE "Habibi Baby"    PERFORMER "East of Eden"    INDEX 00 34:37:62    INDEX 01 34:38:65  TRACK 08 AUDIO    TITLE "Traditional"    PERFORMER "East of Eden"    INDEX 00 40:55:26    INDEX 01 41:05:27

DR 12

foobar2000 1.3.9 / Dynamic Range Meter 1.1.1log date: 2017-11-18 09:13:58
--------------------------------------------------------------------------------Analyzed: East of Eden / Snafu--------------------------------------------------------------------------------
DR Peak RMS Duration Track--------------------------------------------------------------------------------DR12 -2.47 dB -17.11 dB 2:19 01-Have The Whack It UpDR12 -3.96 dB -18.71 dB 7:02 02-Leaping Beauties For RudyDR12 -1.15 dB -17.28 dB 8:14 03-XhorkomDR12 -5.77 dB -25.36 dB 2:30 04-Uno Transito ClaporiDR11 -2.25 dB -17.58 dB 8:17 05-Gum ArabicDR12 -5.52 dB -21.32 dB 6:16 06-NymphenbergerDR12 -5.59 dB -23.14 dB 6:26 07-Habibi BabyDR14 -14.08 dB -35.00 dB 1:33 08-Traditional--------------------------------------------------------------------------------
Number of tracks: 8Official DR value: DR12
Samplerate: 44100 HzChannels: 2Bits per sample: 16Bitrate: 709 kbpsCodec: WavPack================================================================================

Об альбоме (сборнике)

Японский первопресс.
На трекере также представлены ремастерованные издания Eclectic Discs ‎ECLCD 1013 и Deram UICY-93370
Описание на Discogs

To download the file disable ad blocking, and reload the page.

disable adblock How to disable ad blocking?

Download by magnet link 216 MB Download Torrent

Login using:

Similar topics



   
Current time is: 18-Sep 17:08 :: All times are UTC ± 0