Spock's Beard / Snow Live 2xCD
Жанр: Sympho-Prog
Носитель: WEB
Страна-производитель диска (релиза): US
Год издания: 2017
Издатель (лейбл): Radiant
Страна исполнителя (группы): US
Аудиокодек: FLAC (*.flac)
Тип рипа: tracks+.cue
Битрейт аудио: lossless
Продолжительность: 1:15:34+1:15:58
Источник (релизер): Radiant Records
Наличие сканов в содержимом раздачи: нет
Доп. информация: сцылко на эти файлы высылается мылом всем покупателям оригинального блюра. Только вавы, больше ничего. Конвертировало я само.
Эти вавы можно также купить (для скачивания) отдельно, за $18,99 на сайте, указанном в качестве источника.
CD1Треклист:
  • Made Alive / Overture
  • Stranger In A Strange Land
  • Long Time Suffering
  • Welcome To NYC
  • Love Beyond Words
  • The 39th Street Blues (I'm Sick)
  • Devil's Got My Throat
  • Open Wide The Flood Gates
  • Open The Gates Part 2
  • Solitary Soul
  • Wind At My Back
  • Second Overture
  • 4th Of July
  • I'm The Guy
  • Reflection
  • Carie

Содержание индексной карты (.CUE)

REM GENRE "Progressive Rock"REM DATE 2017REM COMMENT "CUE Corrector v. 8.3.2 / b. 824 (Oct. 12, 2017)"REM LABEL "Radiant Records"REM TOTALDISCS 2PERFORMER "Spock's Beard"TITLE "Snow Live CD1"FILE "01 Made Alive - Overture.flac" WAVE  TRACK 01 AUDIO    TITLE "Made Alive - Overture"    PERFORMER "Spock's Beard"    INDEX 01 00:00:00FILE "02 Stranger in a Strange Land.flac" WAVE  TRACK 02 AUDIO    TITLE "Stranger In A Strange Land"    PERFORMER "Spock's Beard"    INDEX 01 00:00:00FILE "03 Long Time Suffering.flac" WAVE  TRACK 03 AUDIO    TITLE "Long Time Suffering"    PERFORMER "Spock's Beard"    INDEX 01 00:00:00FILE "04 Welcome To NYC.flac" WAVE  TRACK 04 AUDIO    TITLE "Welcome To Nyc"    PERFORMER "Spock's Beard"    INDEX 01 00:00:00FILE "05 Love Beyond Words.flac" WAVE  TRACK 05 AUDIO    TITLE "Love Beyond Words"    PERFORMER "Spock's Beard"    INDEX 01 00:00:00FILE "06 The 39th Street Blues.flac" WAVE  TRACK 06 AUDIO    TITLE "The 39Th Street Blues"    PERFORMER "Spock's Beard"    INDEX 01 00:00:00FILE "07 Devil's Got My Throat.flac" WAVE  TRACK 07 AUDIO    TITLE "Devil's Got My Throat"    PERFORMER "Spock's Beard"    INDEX 01 00:00:00FILE "08 Open Wide The Flood Gates.flac" WAVE  TRACK 08 AUDIO    TITLE "Open Wide The Flood Gates"    PERFORMER "Spock's Beard"    INDEX 01 00:00:00FILE "09 Open The Gates Part 2.flac" WAVE  TRACK 09 AUDIO    TITLE "Open The Gates Part 2"    PERFORMER "Spock's Beard"    INDEX 01 00:00:00FILE "10 Solitary Soul.flac" WAVE  TRACK 10 AUDIO    TITLE "Solitary Soul"    PERFORMER "Spock's Beard"    INDEX 01 00:00:00FILE "11 Wind at My Back.flac" WAVE  TRACK 11 AUDIO    TITLE "Wind At My Back"    PERFORMER "Spock's Beard"    INDEX 01 00:00:00FILE "12 Second Overture.flac" WAVE  TRACK 12 AUDIO    TITLE "Second Overture"    PERFORMER "Spock's Beard"    INDEX 01 00:00:00FILE "13 4th of July.flac" WAVE  TRACK 13 AUDIO    TITLE "Th Of July"    PERFORMER "Spock's Beard"    INDEX 01 00:00:00FILE "14 I'm the Guy.flac" WAVE  TRACK 14 AUDIO    TITLE "I'm The Guy"    PERFORMER "Spock's Beard"    INDEX 01 00:00:00FILE "15 Reflection.flac" WAVE  TRACK 15 AUDIO    TITLE Reflection    PERFORMER "Spock's Beard"    INDEX 01 00:00:00FILE "16 Carrie.flac" WAVE  TRACK 16 AUDIO    TITLE Carrie    PERFORMER "Spock's Beard"    INDEX 01 00:00:00

Лог проверки качества

-----------------------
DON'T MODIFY THIS FILE
-----------------------
PERFORMER: auCDtect Task Manager, ver. 1.6.0 RC1 build 1.6.0.1Copyright (c) 2008-2010 y-soft. All rights reservedhttp://y-soft.org
ANALYZER: auCDtect: CD records authenticity detector, version 0.8.2Copyright (c) 2004 Oleg Berngardt. All rights reserved.Copyright (c) 2004 Alexander Djourik. All rights reserved.
FILE: 16 Carrie.flac Size: 27728853 Hash: 986C080991C8E3958A229B49314D7042 Accuracy: -m0 Conclusion: CDDA 100% Signature: 29E70109A7802E27024CD324C77049BCD014A3AEFILE: 15 Reflection.flac Size: 14755539 Hash: AE5822384F9CA325AA73D8DA6E5748E8 Accuracy: -m0 Conclusion: CDDA 100% Signature: 47059CF52273F14643592387B68556F93B0E0E96FILE: 14 I'm the Guy.flac Size: 30196696 Hash: 891332136BC1C191C9C89DB2A3DF6F9E Accuracy: -m0 Conclusion: CDDA 100% Signature: 842C033B034C9849FA2AAAC7F7D1E5EB8CB31639FILE: 13 4th of July.flac Size: 23045325 Hash: 4B02A0AF12331AEFC86E02EF702430AC Accuracy: -m0 Conclusion: CDDA 100% Signature: 6AC584169091F769378F50B2E59239CCA6773940FILE: 12 Second Overture.flac Size: 26861609 Hash: F5719C2065463ADC1313C36AA0E00438 Accuracy: -m0 Conclusion: CDDA 100% Signature: 4B19C608315F36B9213AA255AA37D2CC40ED08DBFILE: 11 Wind at My Back.flac Size: 44067278 Hash: D4928D2446D4120790FD9C7A82744FE8 Accuracy: -m0 Conclusion: CDDA 100% Signature: 35832E99888D639899990947292D1CBDFA27E865FILE: 10 Solitary Soul.flac Size: 58019897 Hash: 19935DA60CAE1A36F38282A4EA21596D Accuracy: -m0 Conclusion: CDDA 100% Signature: 92220C270A39210537350E448916173F7B084FDCFILE: 09 Open The Gates Part 2.flac Size: 22754293 Hash: D96BAA9BDC29834E1ACA53D3B3056065 Accuracy: -m0 Conclusion: CDDA 99% Signature: 0034EB0B01C5C8CAF9956464D3DBD9825304878BFILE: 08 Open Wide The Flood Gates.flac Size: 42122759 Hash: 6C51DFC1AC2C55585B3EC12A179F8890 Accuracy: -m0 Conclusion: CDDA 100% Signature: DA8045C91320166400A9CFE45F1191B05D88FC3FFILE: 07 Devil's Got My Throat.flac Size: 54126820 Hash: 94397F34324B22706EEEA0EA90FE5BC1 Accuracy: -m0 Conclusion: CDDA 100% Signature: 721BA17CECB48DD871A138A86CA7298EA6833F43FILE: 06 The 39th Street Blues.flac Size: 32914221 Hash: 2083B79BF4252A0D069B81A3834C2313 Accuracy: -m0 Conclusion: CDDA 100% Signature: 49D8EE67F8CA2296F4FC2CA267AB982CADCEE2D4FILE: 05 Love Beyond Words.flac Size: 21444343 Hash: C4D9E0730E475B0F0E5698695B5CD178 Accuracy: -m0 Conclusion: CDDA 99% Signature: 7135D1468602365E31FA88DC91D3B33310C14272FILE: 04 Welcome To NYC.flac Size: 24106997 Hash: 906A711F79F78D9457B54F01ABECA240 Accuracy: -m0 Conclusion: CDDA 100% Signature: 59AD20E9B3EBC1EF83882D46A8D2E2382C1EBF04FILE: 03 Long Time Suffering.flac Size: 46047504 Hash: 6F35D4A318BBF179C112203DE48DAD1E Accuracy: -m0 Conclusion: CDDA 100% Signature: 7167FAE22FB329F5CCA381BA50111196A438852CFILE: 02 Stranger in a Strange Land.flac Size: 33669419 Hash: 5445C5E9CF82E7E16A47B96DFD406C25 Accuracy: -m0 Conclusion: CDDA 100% Signature: 25970086757908B63D92A4CB7649736A3326AEA8FILE: 01 Made Alive - Overture.flac Size: 42850968 Hash: 86F13CFB701DE24252619291A693F0E9 Accuracy: -m0 Conclusion: CDDA 100% Signature: 1FE6E4F2D85B918750820984CE8BCE0EAB187654

Скриншот спектра частот

Лог DRM

foobar2000 1.3.8 / Dynamic Range Meter 1.1.1log date: 2017-11-15 08:18:56
--------------------------------------------------------------------------------Analyzed: Spock's Beard / Snow Live CD1--------------------------------------------------------------------------------
DR Peak RMS Duration Track--------------------------------------------------------------------------------DR9 0.00 dB -11.71 dB 5:40 01-Made Alive - OvertureDR9 0.00 dB -12.14 dB 4:33 02-Stranger In A Strange LandDR10 0.00 dB -11.68 dB 6:05 03-Long Time SufferingDR9 0.00 dB -12.28 dB 3:26 04-Welcome To NycDR12 -0.13 dB -15.70 dB 3:40 05-Love Beyond WordsDR9 0.00 dB -10.10 dB 4:11 06-The 39Th Street BluesDR8 0.00 dB -10.54 dB 7:25 07-Devil's Got My ThroatDR9 0.00 dB -11.83 dB 5:41 08-Open Wide The Flood GatesDR9 0.00 dB -11.11 dB 2:58 09-Open The Gates Part 2DR9 0.00 dB -12.21 dB 8:30 10-Solitary SoulDR8 0.00 dB -10.11 dB 5:36 11-Wind At My BackDR9 0.00 dB -11.18 dB 3:31 12-Second OvertureDR10 0.00 dB -11.28 dB 3:04 13-Th Of JulyDR9 0.00 dB -11.83 dB 4:33 14-I'm The GuyDR12 -0.10 dB -15.63 dB 2:16 15-ReflectionDR14 -0.01 dB -17.75 dB 4:25 16-Carrie--------------------------------------------------------------------------------
Number of tracks: 16Official DR value: DR10
Samplerate: 44100 HzChannels: 2Bits per sample: 16Bitrate: 837 kbpsCodec: FLAC================================================================================
CD2Треклист:
  • Looking For Answers
  • Freak Boy
  • All Is Vanity
  • I'm Dying
  • Freak Boy Part 2
  • Devil's Got My Throat Reprise
  • Snow's Night Out
  • Ladies And Gentlemen, Mister Ryo Okumoto On The Keyboards
  • I Will Go
  • Made Alive Again
  • Wind At My Back
  • June
  • Falling For Forever

Содержание индексной карты (.CUE)

REM GENRE "Progressive Rock"REM DATE 2017REM COMMENT "CUE Corrector v. 8.3.2 / b. 824 (Oct. 12, 2017)"REM LABEL "Radiant Records"REM DISCNUMBER 2REM TOTALDISCS 2PERFORMER "Spock's Beard"TITLE "Snow Live CD2"FILE "01 Looking for Answers.flac" WAVE  TRACK 01 AUDIO    TITLE "Looking For Answers"    PERFORMER "Spock's Beard"    INDEX 01 00:00:00FILE "02 Freak Boy.flac" WAVE  TRACK 02 AUDIO    TITLE "Freak Boy"    PERFORMER "Spock's Beard"    INDEX 01 00:00:00FILE "03 All Is Vanity.flac" WAVE  TRACK 03 AUDIO    TITLE "All Is Vanity"    PERFORMER "Spock's Beard"    INDEX 01 00:00:00FILE "04 I'm Dying.flac" WAVE  TRACK 04 AUDIO    TITLE "I'm Dying"    PERFORMER "Spock's Beard"    INDEX 01 00:00:00FILE "05 Freak Boy Part 2.flac" WAVE  TRACK 05 AUDIO    TITLE "Freak Boy Part 2"    PERFORMER "Spock's Beard"    INDEX 01 00:00:00FILE "06 Devil's Got My Throat Revisited.flac" WAVE  TRACK 06 AUDIO    TITLE "Devil's Got My Throat Revisited"    PERFORMER "Spock's Beard"    INDEX 01 00:00:00FILE "07 Snow's Night Out.flac" WAVE  TRACK 07 AUDIO    TITLE "Snow's Night Out"    PERFORMER "Spock's Beard"    INDEX 01 00:00:00FILE "08 Ladies and Gentlemen, Mister Ryo Okumoto on the Keyboards.flac" WAVE  TRACK 08 AUDIO    TITLE "Ladies And Gentlemen, Mister Ryo Okumoto On The Keyboards"    PERFORMER "Spock's Beard"    INDEX 01 00:00:00FILE "09 I Will Go.flac" WAVE  TRACK 09 AUDIO    TITLE "I Will Go"    PERFORMER "Spock's Beard"    INDEX 01 00:00:00FILE "10 Made Alive Again - Wind At My Back.flac" WAVE  TRACK 10 AUDIO    TITLE "Made Alive Again - Wind At My Back"    PERFORMER "Spock's Beard"    INDEX 01 00:00:00FILE "11 June.flac" WAVE  TRACK 11 AUDIO    TITLE June    PERFORMER "Spock's Beard"    INDEX 01 00:00:00FILE "12 Falling For Forever.flac" WAVE  TRACK 12 AUDIO    TITLE "Falling For Forever"    PERFORMER "Spock's Beard"    INDEX 01 00:00:00

Лог проверки качества

-----------------------
DON'T MODIFY THIS FILE
-----------------------
PERFORMER: auCDtect Task Manager, ver. 1.6.0 RC1 build 1.6.0.1Copyright (c) 2008-2010 y-soft. All rights reservedhttp://y-soft.org
ANALYZER: auCDtect: CD records authenticity detector, version 0.8.2Copyright (c) 2004 Oleg Berngardt. All rights reserved.Copyright (c) 2004 Alexander Djourik. All rights reserved.
FILE: 12 Falling For Forever.flac Size: 193371767 Hash: 86DEA7BC33CD3F393AF016AEE636A473 Accuracy: -m0 Conclusion: CDDA 100% Signature: 02924D34BC90C16B96323A842D4F80C40F647168FILE: 11 June.flac Size: 43711339 Hash: 4F524BABEED131089CE4FBEF6EED2565 Accuracy: -m0 Conclusion: CDDA 100% Signature: 3D967F6FA55DC56BEF8E1BAD9D4E690114DDE19BFILE: 10 Made Alive Again - Wind At My Back.flac Size: 51899467 Hash: 917A23B8EE98ACD0BCB5B45BE2E55825 Accuracy: -m0 Conclusion: CDDA 100% Signature: 51365B0844B7F4B4F4894462A66D6132015B651AFILE: 09 I Will Go.flac Size: 34939814 Hash: B1E8B6CC3ADF16D7B908C52FEB936D90 Accuracy: -m0 Conclusion: CDDA 100% Signature: 8CA060CA394DB256D2DDF6687DA1CA1A4DFFB7E3FILE: 08 Ladies and Gentlemen, Mister Ryo Okumoto on the Keyboards.flac Size: 42174111 Hash: 734A5AA519AA6E10273810849DA9FD5B Accuracy: -m0 Conclusion: CDDA 100% Signature: A833F20ED6398984F87D4A9BD51689A1D2B17AD1FILE: 07 Snow's Night Out.flac Size: 16054423 Hash: B5B721C039FCA41135B0642FAAE1A01F Accuracy: -m0 Conclusion: CDDA 100% Signature: 6A2847D5BD552510C883594A4497F841B5B5BB80FILE: 06 Devil's Got My Throat Revisited.flac Size: 17077592 Hash: 4E672C27B23371DEDEB0B28FB5AC459C Accuracy: -m0 Conclusion: CDDA 100% Signature: 283A2BCED6F7190563AD13EEBC9CB151A56F4B17FILE: 05 Freak Boy Part 2.flac Size: 21681357 Hash: 4A9005F952768E06512E07F0C53C3B32 Accuracy: -m0 Conclusion: CDDA 100% Signature: C9643582CB08D6F8D23BB873445F9B9DDD99B6A9FILE: 04 I'm Dying.flac Size: 37366921 Hash: 2910B6D0E9ED1F18CD417F6047F3261D Accuracy: -m0 Conclusion: CDDA 100% Signature: 730CC7A03BC125E4F288327B76F61E3E6F88E6A0FILE: 03 All Is Vanity.flac Size: 35216533 Hash: 639EFED8FE07D2E77896F5A06FE6849C Accuracy: -m0 Conclusion: CDDA 99% Signature: 47CDF092412B0D12DD66F1364B9E7C27A3759236FILE: 02 Freak Boy.flac Size: 17782977 Hash: F35FEC4A961987D4FBA95E40231FAF84 Accuracy: -m0 Conclusion: CDDA 100% Signature: 84F35043D029DAE1909B26450BCBFD809F00509EFILE: 01 Looking for Answers.flac Size: 43439442 Hash: EE3770F56B19D244EBBC7EE1BC2521C2 Accuracy: -m0 Conclusion: CDDA 100% Signature: B13A0259C9AE28B6FCD9FA2E0C612FFE0F41149B

Скриншот спектра частот

Лог DRM

foobar2000 1.3.8 / Dynamic Range Meter 1.1.1log date: 2017-11-15 08:20:05
--------------------------------------------------------------------------------Analyzed: Spock's Beard / Snow Live CD2--------------------------------------------------------------------------------
DR Peak RMS Duration Track--------------------------------------------------------------------------------DR9 0.00 dB -10.09 dB 5:27 01-Looking For AnswersDR9 0.00 dB -9.52 dB 2:19 02-Freak BoyDR8 0.00 dB -9.78 dB 4:31 03-All Is VanityDR9 0.00 dB -11.26 dB 5:03 04-I'm DyingDR10 0.00 dB -11.31 dB 2:51 05-Freak Boy Part 2DR8 0.00 dB -9.40 dB 2:06 06-Devil's Got My Throat RevisitedDR10 0.00 dB -10.62 dB 2:05 07-Snow's Night OutDR9 0.00 dB -11.08 dB 5:33 08-Ladies And Gentlemen, Mister Ryo Okumoto On The KeyboardsDR9 0.00 dB -13.01 dB 5:39 09-I Will GoDR7 0.00 dB -10.52 dB 7:03 10-Made Alive Again - Wind At My BackDR10 0.00 dB -14.08 dB 6:13 11-JuneDR8 0.00 dB -11.18 dB 27:07 12-Falling For Forever--------------------------------------------------------------------------------
Number of tracks: 12Official DR value: DR9
Samplerate: 44100 HzChannels: 2Bits per sample: 16Bitrate: 951 kbpsCodec: FLAC================================================================================

To download the file disable ad blocking, and reload the page.

disable adblock How to disable ad blocking?

Download by magnet link 1.02 GB Download Torrent

Login using:

Similar topics



   
Current time is: 15-Nov 23:52 :: All times are UTC + 3