Cerebrum / Cosmic Enigma
Жанр: Technical Brutal Death Metal
Носитель: CD
Страна-производитель диска (релиза): Japan
Год издания: 2013
Издатель (лейбл): Amputated Vein Records
Номер по каталогу: AVR045
Страна исполнителя (группы): Greece
Аудиокодек: FLAC (*.flac)
Тип рипа: image+.cue
Битрейт аудио: lossless
Продолжительность: 40:21
Источник (релизер): Original CD
Наличие сканов в содержимом раздачи: да
Треклист:
1. Utopian Freedom, Dogmatic Truth 03:55
2. Subconscious Extraction 04:02
3. Dream Infusion Side-Effects 04:09
4. Vaporized To Feed The Profound Abyss (...Sinking Endlessly) 00:37
5. Oblivious Eons 03:53
6. Phobos Manipulation 04:48
7. Self-Regenerate 03:19
8. Enter the Void 04:12
9. Chaotic Orbits Align 03:05
10. Cosmic Enigma 03:56
11. Swirling Liquid Pellets... (Vitiate the Infinite Vacuum) 00:29
12. S-G-S (Subliminal Gravity Symptoms) 03:55

Лог создания рипа

Exact Audio Copy V1.3 from 2. September 2016
EAC extraction logfile from 18. November 2017, 14:24
Cerebrum / Cosmic Enigma
Used drive : ATAPI DVD A DH16A6L Adapter: 1 ID: 2
Read mode : SecureUtilize accurate stream : YesDefeat audio cache : YesMake use of C2 pointers : No
Read offset correction : 6Overread into Lead-In and Lead-Out : NoFill up missing offset samples with silence : YesDelete leading and trailing silent blocks : NoNull samples used in CRC calculations : YesUsed interface : Native Win32 interface for Win NT & 2000
Used output format : User Defined EncoderSelected bitrate : 128 kBit/sQuality : HighAdd ID3 tag : NoCommand line compressor : C:\Program Files (x86)\FLAC\flac.exeAdditional command line options : -V -8 %source%
TOC of the extracted CD
Track | Start | Length | Start sector | End sector --------------------------------------------------------- 1 | 0:00.00 | 3:55.29 | 0 | 17653 2 | 3:55.29 | 4:02.13 | 17654 | 35816 3 | 7:57.42 | 4:09.29 | 35817 | 54520 4 | 12:06.71 | 0:37.37 | 54521 | 57332 5 | 12:44.33 | 3:52.46 | 57333 | 74778 6 | 16:37.04 | 4:47.69 | 74779 | 96372 7 | 21:24.73 | 3:18.68 | 96373 | 111290 8 | 24:43.66 | 4:11.58 | 111291 | 130173 9 | 28:55.49 | 3:05.17 | 130174 | 144065 10 | 32:00.66 | 3:56.06 | 144066 | 161771 11 | 35:56.72 | 0:29.32 | 161772 | 163978 12 | 36:26.29 | 3:54.61 | 163979 | 181589
Range status and errors
Selected range
Filename E:\Temp Documents\из И-Нета\TORRENTS\Раздача\Cerebrum\2013 Cosmic Enigma\Cerebrum - Cosmic Enigma.wav
Peak level 100.0 % Extraction speed 5.4 X Range quality 100.0 % Test CRC D52287A1 Copy CRC D52287A1 Copy OK
No errors occurred
AccurateRip summary
Track 1 accurately ripped (confidence 1) [BE4021D2] (AR v2)Track 2 accurately ripped (confidence 1) [AFC5C780] (AR v2)Track 3 accurately ripped (confidence 1) [0158BA8E] (AR v2)Track 4 accurately ripped (confidence 1) [00850517] (AR v2)Track 5 accurately ripped (confidence 1) [208ACB72] (AR v2)Track 6 accurately ripped (confidence 1) [41F395D9] (AR v2)Track 7 accurately ripped (confidence 1) [242F1B5F] (AR v2)Track 8 accurately ripped (confidence 1) [9F150BD5] (AR v2)Track 9 accurately ripped (confidence 1) [07AE8638] (AR v2)Track 10 accurately ripped (confidence 1) [4726B271] (AR v2)Track 11 accurately ripped (confidence 1) [E0F75D60] (AR v2)Track 12 accurately ripped (confidence 1) [CBDF20CF] (AR v2)
All tracks accurately ripped
End of status report
---- CUETools DB Plugin V2.1.6
[CTDB TOCID: GagpkFKsh.rz1VpHSt.wZVTT70o-] foundSubmit result: already submittedTrack | CTDB Status 1 | (2/2) Accurately ripped 2 | (2/2) Accurately ripped 3 | (2/2) Accurately ripped 4 | (2/2) Accurately ripped 5 | (2/2) Accurately ripped 6 | (2/2) Accurately ripped 7 | (2/2) Accurately ripped 8 | (2/2) Accurately ripped 9 | (2/2) Accurately ripped 10 | (2/2) Accurately ripped 11 | (2/2) Accurately ripped 12 | (2/2) Accurately ripped
==== Log checksum DB708CC1165E43F14C44DABAB76A4AADF8AC866A9525E11D8761274610C0AFD8 ====

Содержание индексной карты (.CUE)

REM GENRE "Technical Brutal Death Metal"REM DATE 2013REM DISCID C709750CREM COMMENT "ExactAudioCopy v1.3"PERFORMER "Cerebrum"TITLE "Cosmic Enigma"REM COMPOSER ""FILE "Cerebrum - Cosmic Enigma.flac" WAVE  TRACK 01 AUDIO    TITLE "Utopian Freedom, Dogmatic Truth "    PERFORMER "Cerebrum"    REM COMPOSER ""    INDEX 01 00:00:00  TRACK 02 AUDIO    TITLE "Subconscious Extraction"    PERFORMER "Cerebrum"    REM COMPOSER ""    INDEX 01 03:55:29  TRACK 03 AUDIO    TITLE "Dream Infusion Side Effects"    PERFORMER "Cerebrum"    REM COMPOSER ""    INDEX 01 07:57:42  TRACK 04 AUDIO    TITLE "Vaporized To Feed The Profound Abyss (...Sinking Endlessly)"    PERFORMER "Cerebrum"    REM COMPOSER ""    INDEX 01 12:06:71  TRACK 05 AUDIO    TITLE "Oblivious Eons"    PERFORMER "Cerebrum"    REM COMPOSER ""    INDEX 01 12:44:33  TRACK 06 AUDIO    TITLE "Phobos Manipulation"    PERFORMER "Cerebrum"    REM COMPOSER ""    INDEX 01 16:37:04  TRACK 07 AUDIO    TITLE "Self-Regenarate"    PERFORMER "Cerebrum"    REM COMPOSER ""    INDEX 01 21:24:73  TRACK 08 AUDIO    TITLE "Enter The Void"    PERFORMER "Cerebrum"    REM COMPOSER ""    INDEX 01 24:43:66  TRACK 09 AUDIO    TITLE "Chaotic Orbits Align"    PERFORMER "Cerebrum"    REM COMPOSER ""    INDEX 01 28:55:49  TRACK 10 AUDIO    TITLE "Cosmic Enigma"    PERFORMER "Cerebrum"    REM COMPOSER ""    INDEX 01 32:00:66  TRACK 11 AUDIO    TITLE "Swirling Liquid Pellets... (Vitiate The Infinite Vacuum)"    PERFORMER "Cerebrum"    REM COMPOSER ""    INDEX 01 35:56:72  TRACK 12 AUDIO    TITLE "S-G-S (Subliminal Gravity Symptoms)"    PERFORMER "Cerebrum"    REM COMPOSER ""    INDEX 01 36:26:29

To download the file disable ad blocking, and reload the page.

disable adblock How to disable ad blocking?

Download by magnet link 458 MB Download Torrent

Login using:

Similar topics



   
Current time is: 15-Oct 21:57 :: All times are UTC ± 0